<?xml version="1.0" standalone="no"?>
<!DOCTYPE svg PUBLIC "-//W3C//DTD SVG 1.1//EN" "http://www.w3.org/Graphics/SVG/1.1/DTD/svg11.dtd" >
<svg xmlns="http://www.w3.org/2000/svg">
<metadata>
This is a custom SVG font generated by IcoMoon.
<iconset grid="16"></iconset>
</metadata>
<defs>
<font id="pixons" horiz-adv-x="512" >
<font-face units-per-em="512" ascent="480" descent="-32" />
<missing-glyph horiz-adv-x="512" />
<glyph unicode="&#x21;" d="M 430.373,72.709c-2.497,0.021-5.068-0.575-7.471-1.693
	c-2.706-1.087-5.465-2.33-8.046-3.427l-3.835-1.588l-4.974-1.975l0.00-0.063 c-54.00-21.901-110.717-34.732-163.203-35.861
	c-1.933-0.063-3.856-0.063-5.757-0.063c-82.526-0.042-149.88,38.243-217.851,75.964c-2.382,1.243-4.775,1.902-7.168,1.902
	c-3.072,0.00-6.196-1.139-8.474-3.281C 1.337,100.472-0.021,97.348,0.00,94.182c-0.01-4.127, 2.215-7.899, 5.298-10.344
	C 69.068,28.468, 138.971-22.983, 232.96-23.024c 1.839,0.00, 3.699,0.042, 5.58,0.084c 59.789,1.348, 127.425,21.535, 179.90,54.512l 0.303,0.209
	c 6.875,4.106, 13.751,8.777, 20.229,13.96c 4.044,2.999, 6.813,7.649, 6.771,12.507C 445.607,66.879, 438.272,72.709, 430.373,72.709zM 503.192,103.283l0.00,0.021 c-0.199,5.266-1.327,9.247-3.511,12.57L 499.461,116.187
	l-0.261,0.324c-2.226,2.424-4.347,3.344-6.677,4.368c-6.875,2.654-16.896,4.065-28.975,4.106c-8.673,0.00-18.254-0.815-27.857-2.915
	l-0.021,0.637l-9.686-3.229l-0.178-0.084l-5.465-1.776l 0.01-0.24c-6.416-2.654-12.257-5.977-17.669-9.895
	c-3.354-2.529-6.175-5.862-6.332-10.982c-0.073-2.779, 1.327-5.977, 3.699-7.879c 2.33-1.902, 5.057-2.529, 7.45-2.529
	c 0.575,0.00, 1.097,0.021, 1.578,0.104l 0.46,0.042l 0.366,0.063c 4.733,1.003, 11.63,1.672, 19.696,2.821c 6.917,0.752, 14.263,1.327, 20.637,1.327
	c 4.524,0.021, 8.547-0.282, 11.327-0.899c 1.39-0.282, 2.435-0.658, 3.02-0.94c 0.188-0.084, 0.334-0.167, 0.418-0.219
	c 0.115-0.387, 0.293-1.369, 0.272-2.779c 0.063-5.329-2.226-15.203-5.298-24.837c-3.03-9.655-6.708-19.331-9.143-25.757
	c-0.575-1.494-0.94-3.103-0.94-4.88c-0.052-2.591, 1.003-5.716, 3.25-7.795c 2.184-2.079, 5.005-2.894, 7.387-2.894l 0.094,0.00 
	c 3.574,0.042, 6.593,1.452, 9.206,3.49c 24.586,22.10, 33.113,57.344, 33.447,77.208L 503.192,103.283zM 278.559,340.057c-14.44-1.087-31.107-2.184-47.762-4.389
	c-25.537-3.365-51.085-7.774-72.171-17.795c-41.085-16.656-68.859-52.182-68.859-104.364c0.00-65.546, 42.193-98.858, 95.525-98.858
	c 17.753,0.00, 32.214,2.247, 45.505,5.548c 21.117,6.677, 38.87,18.881, 59.988,41.127c 12.204-16.677, 15.548-24.472, 36.634-42.224
	c 5.559-2.205, 11.107-2.205, 15.538,1.097c 13.343,11.118, 36.676,31.128, 48.87,42.203c 5.569,4.451, 4.462,11.118, 1.097,16.635
	c-12.184,15.569-24.419,28.902-24.419,58.901l0.00,99.934 c0.00,42.203, 3.333,81.084-27.752,109.923C 315.225,471.097, 275.237,480.00, 244.13,480.00l-13.333,0.00 
	C 174.174,476.719, 114.197,452.268, 100.864,382.281c-2.226-8.903, 4.451-12.204, 8.903-13.302l 62.171-7.774c 6.687,1.097, 10.00,6.677, 11.107,12.184
	c 5.548,24.451, 25.537,36.676, 47.741,38.902l 4.462,0.00 c 13.322,0.00, 27.752-5.569, 35.527-16.677c 8.882-13.322, 7.774-31.107, 7.774-46.655L 278.549,340.057 z
	 M 266.355,207.94c-7.774-15.506-21.117-25.506-35.558-28.902c-2.215,0.00-5.528-1.097-8.892-1.097c-24.409,0.00-38.86,18.902-38.86,46.655
	c0.00,35.547, 21.107,52.203, 47.741,59.977c 14.44,3.323, 31.107,4.451, 47.762,4.451l0.00-13.343 C 278.559,250.143, 279.667,230.165, 266.355,207.94z" horiz-adv-x="511.99999999999994"  />
<glyph unicode="&#x22;" d="M 281.098,437.896l 5.481,8.222l 5.401,8.112l 12.137,18.201c 1.486,2.239, 0.883,5.251-1.345,6.746c-2.249,1.496-5.261,0.893-6.756-1.355
	L 283.005,458.305l-5.471-8.202l-5.552-8.312c-17.579,6.817-37.195,10.642-57.896,10.642c-20.691,0.00-40.307-3.825-57.886-10.642l-5.542,8.312
	l-5.461,8.202l-13.031,19.516c-1.486,2.239-4.508,2.841-6.756,1.355c-2.229-1.486-2.831-4.508-1.345-6.746l 12.127-18.201l 5.411-8.112
	l 5.481-8.222C 105.803,418.66, 77.864,382.218, 77.864,340.495l 272.484,0.00 C 350.339,382.218, 322.399,418.66, 281.098,437.896z M 155.718,379.427
	c-8.072,0.00-14.597,6.536-14.597,14.597s 6.525,14.587, 14.597,14.587c 8.061,0.00, 14.597-6.525, 14.597-14.587S 163.77,379.427, 155.718,379.427z
	 M 272.494,379.427c-8.061,0.00-14.587,6.536-14.587,14.597s 6.525,14.587, 14.587,14.587c 8.072,0.00, 14.597-6.525, 14.597-14.587
	S 280.556,379.427, 272.494,379.427zM 79.962,321.039L 77.864,321.039 l0.00-24.285 l0.00-19.797 L 77.864,106.943 c0.00-16.996, 13.814-30.83, 30.81-30.83l 22.247,0.00 c-0.743-2.57-1.165-5.281-1.165-8.102l0.00-1.616 
	l0.00-9.738 l0.00-50.286 c0.00-16.113, 13.081-29.194, 29.194-29.194c 16.123,0.00, 29.204,13.081, 29.204,29.194l0.00,50.286 l0.00,9.738 l0.00,1.616 c0.00,2.811-0.432,5.532-1.165,8.102
	l 54.222,0.00 c-0.743-2.57-1.165-5.281-1.165-8.102l0.00-1.616 l0.00-9.738 l0.00-50.286 c0.00-16.113, 13.081-29.194, 29.194-29.194c 16.123,0.00, 29.204,13.081, 29.204,29.194
	l0.00,50.286 l0.00,9.738 l0.00,1.616 c0.00,2.811-0.422,5.532-1.165,8.102l 22.247,0.00 c 16.996,0.00, 30.81,13.834, 30.81,30.83L 350.339,276.957 l0.00,19.797 l0.00,24.285 l-2.098,0.00 L 79.962,321.039 zM 29.194,321.039C 13.071,321.039,0.00,307.968,0.00,291.845l0.00-124.888 c0.00-16.113, 13.071-29.194, 29.194-29.194c 16.113,0.00, 29.194,13.081, 29.194,29.194
	l0.00,124.888 C 58.388,307.968, 45.317,321.039, 29.194,321.039zM 399.009,321.039c-16.123,0.00-29.194-13.071-29.194-29.194l0.00-124.888 c0.00-16.113, 13.071-29.194, 29.194-29.194s 29.184,13.081, 29.184,29.194l0.00,124.888 
	C 428.193,307.968, 415.142,321.039, 399.009,321.039z" horiz-adv-x="441.72549019607845"  />
<glyph unicode="&#x23;" d="M 259.809,156.918c 52.183-25.385, 106.977-71.977, 129.30-125.85
	c-28.631-23.204-32.348-26.092-65.987-54.385c-32.41,62.382-71.649,96.768-125.317,110.531C 166.298,46.612, 115.005-0.799, 34.816-22.692
	c-17.879,37.837-22.743,48.527-34.816,77.076c 64.143,14.858, 87.511,35.144, 118.917,95.293c-2.243,73.011, 16.517,144.783, 63.334,173.507
	c 24.33-7.987, 64.584-31.99, 76.042-35.625c-1.618-7.404, 3.707-15.821, 23.357-20.122c 14.92-3.267, 49.981-8.417, 83.835,22.292
	c 20.756-31.908, 37.171-62.74, 37.171-62.74s-64.778-64.338-141.455-44.134C 260.669,172.841, 260.291,169.656, 259.809,156.918z M 268.913,336.835
	c-39.188,0.00-71.946,32.051-71.946,71.588S 229.724,480.00, 268.913,480.00c 39.158,0.00, 72.438-32.051, 72.438-71.588S 308.07,336.835, 268.913,336.835z" horiz-adv-x="409.6"  />
<glyph unicode="&#x24;" d="M 311.11,261.717c0.00,0.00, 72.952,5.446, 72.952,90.981S 324.375,480.00, 248.77,480.00l-139.171,0.00 L 105.534,480.00 L0.00,480.00 l0.00-478.084 l 105.534,0.00 l 4.08,0.00 l 139.171,0.00 
	c0.00,0.00, 151.862-4.81, 151.862,141.11C 400.632,143.011, 407.273,261.717, 311.11,261.717z M 109.599,395.008l 121.251,0.00 l 17.904,0.00 c0.00,0.00, 33.823,0.00, 33.823-49.726
	c0.00-49.742-19.89-56.956-42.434-56.956L 109.599,288.326 L 109.599,395.008 z M 241.742,86.862c-3.677-0.078-6.796,0.00-8.89,0.00L 109.599,86.862 l0.00,127.767 l 139.171,0.00 
	c0.00,0.00, 50.393,0.667, 50.393-65.645C 299.163,93.068, 261.523,87.296, 241.742,86.862zM 603.198,358.361c-183.855,0.00-183.684-183.699-183.684-183.699s-12.614-182.753, 183.684-182.753c0.00,0.00, 163.607-9.356, 163.607,127.131l-84.154,0.00 
	c0.00,0.00, 2.808-51.402-76.645-51.402c0.00,0.00-84.139-5.616-84.139,83.192l 247.73,0.00 C 769.598,150.831, 796.719,358.361, 603.198,358.361z M 520.921,214.629
	c0.00,0.00, 10.287,73.697, 84.139,73.697c 73.868,0.00, 72.906-73.697, 72.906-73.697L 520.921,214.629 zM 500.348,451.84L 697.577,451.84L 697.577,392.96L 500.348,392.96z" horiz-adv-x="791.2727272727273"  />
<glyph unicode="&#x25;" d="M0.00,480.00l0.00-309.379 l 0.417,0.00 c 4.322-106.913, 131.965-192.703, 289.244-192.703
	c 160.006,0.00, 289.661,88.719, 289.661,198.204c0.00,109.461-129.655,198.192-289.661,198.192c-69.989,0.00-134.227-17.003-184.32-45.318L 105.341,480.00 L0.00,480.00 z M 289.661,308.23
	c 101.828,0.00, 184.332-59.142, 184.332-132.12c0.00-72.99-82.503-132.132-184.332-132.132c-101.781,0.00-184.32,59.142-184.32,132.132
	C 105.341,249.088, 187.88,308.23, 289.661,308.23z M 167.829,176.122c0.00,48.259, 54.57,87.326, 121.832,87.326c 67.322,0.00, 121.844-39.067, 121.844-87.326
	c0.00-48.247-54.522-87.338-121.844-87.338C 222.387,88.784, 167.829,127.875, 167.829,176.122z" horiz-adv-x="595.3488372093024"  />
<glyph unicode="&#x26;" d="M 501.603,270.268l-4.242,8.777l-7.095,5.548c-9.279,7.262-56.174-0.47-68.796,11.003
	c-8.965,8.244-10.355,23.103-13.061,43.165c-5.026,39.016-8.234,41.023-14.305,54.188C 372.015,439.834, 312.09,475.099, 270.932,480.00L 159.42,480.00 
	C 71.701,480.00,0.00,408.142,0.00,320.434l0.00-186.128 c0.00-87.552, 71.701-159.263, 159.42-159.263L 342.622-24.957 c 87.73,0.00, 158.981,71.711, 159.472,159.263l 0.993,128.92
	L 501.603,270.268z M 161.458,349.597l 88.409,0.00 c 16.854,0.00, 30.532-13.699, 30.532-30.407c0.00-16.677-13.678-30.532-30.532-30.532l-88.409,0.00 
	c-16.875,0.00-30.542,13.855-30.542,30.532C 130.915,335.898, 144.583,349.597, 161.458,349.597z M 341.096,106.282L 161.458,106.282 
	c-16.875,0.00-30.542,13.876-30.542,30.365c0.00,16.739, 13.667,30.365, 30.542,30.365l 179.628,0.00 c 16.771,0.00, 30.375-13.636, 30.375-30.365
	C 371.472,120.158, 357.867,106.282, 341.096,106.282z" horiz-adv-x="522.4489795918367"  />
<glyph unicode="&#x27;" d="M 167.045-21.135C 74.947-21.135,0.00,53.811,0.00,145.92L0.00,480.00 l 95.447,0.00 l0.00-334.08 
	c0.00-39.496, 32.123-71.608, 71.588-71.608c 39.475,0.00, 71.598,32.113, 71.598,71.608c0.00,39.475-32.123,71.557-71.598,71.557l-47.729,0.00 l0.00,95.457 l 47.729,0.00 
	c 92.099,0.00, 167.045-74.936, 167.045-167.014C 334.09,53.811, 259.144-21.135, 167.045-21.135z" horiz-adv-x="348.16"  />
<glyph unicode="&#x28;" d="M 483.912,326.185c-19.118,45.22-51.036,83.63-91.218,110.787
	c-20.101,13.588-42.281,24.351-65.935,31.703C 303.063,476.037, 277.914,480.01, 251.873,480.00c-34.734,0.01-67.912-7.045-98.048-19.804
	c-45.22-19.128-83.661-51.046-110.797-91.228c-13.568-20.101-24.34-42.271-31.703-65.956c-7.373-23.665-11.325-48.845-11.315-74.885
	c-0.01-34.724, 7.045-67.912, 19.804-98.048c 19.118-45.199, 51.036-83.62, 91.228-110.776c 20.091-13.578, 42.26-24.32, 65.946-31.703
	c 23.675-7.383, 48.845-11.315, 74.885-11.315c 34.703,0.00, 67.891,7.045, 98.017,19.784c 45.23,19.139, 83.64,51.036, 110.797,91.238
	c 13.568,20.101, 24.34,42.281, 31.693,65.956c 7.373,23.654, 11.325,48.824, 11.325,74.875C 503.716,262.871, 496.681,296.038, 483.912,326.185z
	 M 452.557,143.37c-16.538-39.055-44.175-72.335-78.961-95.816c-17.367-11.756-36.526-21.064-56.965-27.412c-20.449-6.349-42.189-9.769-64.758-9.789
	l-0.031,0.00 L 251.843,227.901 L 34.079,227.901 c0.00,0.082,0.00,0.174,0.00,0.236c0.00,30.116, 6.083,58.716, 17.091,84.767c 16.517,39.066, 44.165,72.356, 78.93,95.857
	c 17.377,11.735, 36.536,21.012, 56.975,27.382c 20.449,6.359, 42.189,9.789, 64.788,9.789l0.00-217.795 l 217.764,0.00 C 469.627,198.031, 463.555,169.431, 452.557,143.37
	z"  />
<glyph unicode="&#x29;" d="M 316.575,336.552c 197.791,56.867, 362.973-59.374, 362.973-59.374l-136.139-36.758l-39.212,72.863c-36.899,6.762-78.936,8.898-123.622,1.377
	l 92.69-188.345L 873.754,241.655c0.00,0.00-145.249,228.105-578.454,154.412c-2.56-0.441-4.785-1.077-7.309-1.483L 245.937,480.00L 121.273,465.823l 50.847-103.936
	c-262.886-108.544-146.397-364.509-146.397-364.509l 401.073,115.447L 316.575,336.552z M 134.232,129.969c0.00,0.00-38.647,85.31, 73.816,158.455l 59.816-122.421
	L 134.232,129.969z" horiz-adv-x="900.4137931034483"  />
<glyph unicode="&#x2a;" d="M 131.443,480.00l0.00-115.747 L0.00,364.253 l0.00-265.004 l 216.858,0.00 L 216.858,480.00 L 131.443,480.00 z M 131.443,170.487L 86.916,170.487 L 86.916,290.913 l 44.526,0.00 L 131.443,170.487 zM 394.911,363.176l0.00-264.951 l 131.496,0.00 l0.00-41.454 l-132.996,0.00 l0.00-74.381 l 180.665,0.00 l 37.729,0.00 L 611.805,363.176 L 394.911,363.176 z M 526.407,171.494l-44.562,0.00 l0.00,120.497 l 44.562,0.00 L 526.407,171.494 zM 656.861,363.176l0.00-264.951 l 131.425,0.00 l0.00-41.454 l-132.961,0.00 l0.00-74.381 l 180.701,0.00 l 37.694,0.00 L 873.719,363.176 L 656.861,363.176 z M 788.286,171.494l-44.473,0.00 l0.00,120.497 l 44.473,0.00 L 788.286,171.494 zM 260.89,364.765L 349.361,364.765L 349.361,98.207L 260.89,98.207zM 260.89,475.321L 349.361,475.321L 349.361,403.023L 260.89,403.023z" horiz-adv-x="882.7586206896551"  />
<glyph unicode="&#x2b;" d="M 491.289,281.786c-3.253,15.942-8.142,31.644-14.467,46.642
	c-6.214,14.728-13.924,28.903-22.879,42.155c-8.875,13.141-19.064,25.49-30.288,36.703c-11.224,11.234-23.582,21.434-36.713,30.298
	c-13.252,8.985-27.447,16.665-42.155,22.899c-14.989,6.315-30.69,11.214-46.642,14.446C 281.791,478.293, 264.985,480.00, 248.179,480.00
	c-16.826,0.00-33.641-1.707-49.985-5.06c-15.942-3.233-31.634-8.142-46.632-14.446c-14.707-6.234-28.903-13.924-42.165-22.899
	C 96.256,428.73, 83.898,418.53, 72.674,407.296C 61.46,396.082, 51.27,383.724, 42.406,370.593c-8.965-13.252-16.665-27.427-22.879-42.155
	c-6.345-14.999-11.214-30.71-14.477-46.642C 1.697,265.472,0.00,248.646,0.00,231.841c0.00-16.846, 1.697-33.672, 5.04-49.995
	c 3.263-15.942, 8.142-31.644, 14.477-46.632c 6.214-14.707, 13.924-28.923, 22.879-42.175c 8.875-13.141, 19.054-25.469, 30.278-36.703
	c 11.224-11.214, 23.582-21.394, 36.713-30.278c 13.262-8.965, 27.457-16.665, 42.165-22.879c 14.989-6.355, 30.69-11.194, 46.632-14.467
	c 16.354-3.373, 33.17-5.06, 49.985-5.06c 16.806,0.00, 33.621,1.687, 49.965,5.06c 15.952,3.273, 31.644,8.122, 46.642,14.467
	c 14.707,6.214, 28.903,13.924, 42.155,22.879c 13.141,8.885, 25.49,19.054, 36.713,30.278c 11.214,11.234, 21.414,23.572, 30.288,36.703
	c 8.965,13.252, 16.665,27.467, 22.879,42.175c 6.335,14.979, 11.214,30.69, 14.467,46.632c 3.353,16.334, 5.05,33.16, 5.05,49.995
	C 496.329,248.646, 494.642,265.472, 491.289,281.786z M 460.037,233.939c-3.072,0.663-74.792,16.103-147.617,6.937
	c-1.486,3.624-3.002,7.278-4.568,10.943c-4.407,10.371-9.156,20.651-14.085,30.75c 83.697,34.153, 117.68,83.295, 118.081,83.878
	C 441.565,330.355, 459.545,284.235, 460.037,233.939z M 388.146,390.882c-0.522-0.823-30.71-46.763-110.702-76.75
	c-36.221,66.57-76.027,119.447-79.219,123.643c 16.023,3.885, 32.728,5.983, 49.955,5.983C 301.829,443.768, 350.80,423.76, 388.146,390.882z
	 M 197.411,437.604c-0.01-0.02-0.04-0.04-0.04-0.04s-0.241-0.06-0.632-0.141C 196.949,437.494, 197.19,437.534, 197.411,437.604z
	 M 157.746,423.509c 2.811-3.785, 42.014-56.922, 78.697-122.117c-101.768-27.036-190.083-25.981-195.674-25.881C 54.543,341.158, 98.635,395.59, 157.746,423.509z
	 M 36.232,231.841c0.00,2.259, 0.10,4.467, 0.181,6.686c 3.735-0.08, 108.464-2.45, 217.58,30.198c 6.074-11.886, 11.886-23.964, 17.197-36.021
	c-2.801-0.783-5.582-1.626-8.353-2.53C 148.46,193.22, 90.453,90.298, 90.453,90.298s 0.07-0.06, 0.08-0.10
	C 56.782,127.744, 36.232,177.388, 36.232,231.841z M 248.179,19.883c-51.30,0.00-98.344,18.231-135.007,48.57c 2.791-2.259, 4.749-3.704, 4.749-3.704
	s 40.629,88.606, 166.32,132.397c 0.462,0.181, 0.934,0.311, 1.405,0.452c 29.827-77.493, 42.135-142.396, 45.277-160.919
	C 305.493,25.866, 277.524,19.883, 248.179,19.883z M 366.602,56.044c-2.158,12.80-13.453,75.003-41.251,151.391
	c 68.417,10.943, 127.709-7.821, 132.076-9.256C 447.99,139.118, 414.188,88.179, 366.602,56.044z"  />
<glyph unicode="&#x2c;" d="M0.00,200.241L 159.014,96.479L 270.292,189.271L 109.949,288.24 zM 159.014,480.00L0.00,376.282L 109.949,288.24L 270.292,387.197 zM 540.585,376.282L 381.56,480.00L 270.292,387.197L 430.625,288.24 zM 270.292,189.271L 381.56,96.479L 540.585,200.241L 430.625,288.24 zM 270.63,169.314L 159.014,76.762L 111.257,107.961L 111.257,72.993L 270.63-22.523L 429.971,72.993L 429.971,107.961L 382.224,76.762 z" horiz-adv-x="544.6808510638298"  />
<glyph unicode="&#x2d;" d="M 324.51,388.50c-25.413,15.655-49.408,21.74-73.354,37.386C 236.288,435.84, 215.631,459.579, 198.302,480.00
	c-3.18-32.916-13.174-46.316-24.645-55.906c-24.281-19.131-39.572-24.911-60.593-36.45C 95.409,378.496-0.502,320.926,0.00,197.918
	c 0.502-122.978, 104.694-213.11, 219.943-212.638c 115.289,0.463, 214.912,84.303, 214.40,210.619C 433.822,322.225, 339.84,379.038, 324.51,388.50z
	 M 327.887,33.812c-2.383-2.373-24.32-17.723-50.127-20.244c-25.826-2.462-60.761-4.037-81.851,14.946c-3.348,3.328-2.452,8.064-0.049,9.984
	c 2.383,1.94, 4.293,3.407, 7.168,3.407c 2.895,0.02, 2.363,0.02, 3.84-0.945c 9.61-7.591, 23.956-13.716, 54.558-13.588
	c 30.622,0.128, 52.135,8.753, 61.657,15.97c 4.293,3.348, 6.213,0.502, 6.725-1.418C 330.25,40.025, 331.234,37.14, 327.887,33.812z
	 M 244.834,73.61c 5.248,4.785, 13.854,12.465, 21.967,15.813c 8.123,3.377, 12.386,2.924, 20.066,2.954c 7.631,0.039, 15.803-0.414, 21.543-4.234
	c 5.73-3.791, 9.147-12.337, 11.038-17.054c 1.959-4.785, 0.039-7.65-3.751-9.59c-3.328-1.90-3.83-0.955-7.198,5.199
	c-3.348,6.183-6.252,12.396-23.001,12.318c-16.719-0.069-21.977-5.829-30.09-12.524c-8.094-6.695-10.978-9.098-13.854-5.297
	C 238.661,64.994, 239.606,68.815, 244.834,73.61z M 417.103,165.169c 0.069-14.769-4.598-41.472-16.039-58.201
	c-11.362-16.758-18.521-23.001-31.97-22.075c-17.241,1.378-51.87,54.617-73.856,55.503c-27.727,0.827-87.769-58.092-135.148-58.289
	c-28.711-0.118-37.297,4.145-46.897,10.329c-14.425,9.954-21.662,25.167-21.268,46.159c 0.354,37.199, 35.092,72.103, 79.114,72.753
	c 55.936,0.719, 94.956-54.863, 123.136-54.302c 23.936,0.551, 69.681,47.478, 92.17,47.577C 410.25,204.711, 417.044,179.988, 417.103,165.169z" horiz-adv-x="443.0769230769231"  />
<glyph unicode="&#x2e;" d="M 410.694,308.49
	c-7.258-26.985-35.85-40.478-35.85-40.478C 309.67,433.599, 224.457,480.00, 224.457,480.00c-3.624-53.117-67.875-94.991-67.875-94.991l-44.564,23.462
	c 7.198-37.697-15.842-72.905-15.842-72.905c-92.321-60.296-56.792-184.33-56.792-184.33L0.00,169.126c 29.304-212.229, 208.434-186.448, 208.434-186.448
	C 463.661-15.516, 410.694,308.49, 410.694,308.49z M 201.587,22.664C 48.439,23.758, 80.223,218.147, 80.223,218.147
	c 4.347-16.193, 21.494-24.275, 21.494-24.275c 39.113,99.348, 90.232,127.177, 90.232,127.177c 2.189-31.844, 40.739-57.003, 40.739-57.003l 26.734,14.095
	c-4.327-22.618, 9.507-43.741, 9.507-43.741c 55.386-36.171, 34.093-110.592, 34.093-110.592l 23.612,10.722C 309.057,7.203, 201.587,22.664, 201.587,22.664
	z" horiz-adv-x="421.6470588235294"  />
<glyph unicode="&#x2f;" d="M 32.035,77.869C-39.876,228.658, 8.614,340.856, 184.159,412.296L 32.035,77.869zM 67.042,38.024C 137.075,187.256, 235.922,320.045, 350.79,443.698c 30.298,40.468, 86.408,50.206, 88.134,13.302
	c-0.12-14.477-0.351-28.702-0.703-42.787C 299.199,300.408, 187.402,164.176, 92.029,15.455C 82.532,22.021, 74.069,29.55, 67.042,38.024zM 92.029,15.455c 95.373,148.721, 207.179,284.963, 346.192,398.758c-4.347-175.506-28.702-320.582-105.542-385.847
	C 262.997-27.402, 154.283-27.312, 92.029,15.455z" horiz-adv-x="451.7647058823529"  />
<glyph unicode="&#x30;" d="M 100.754,372.962l-80.515,0.09L 121.103,474.539
	l 0.03-81.85L 100.754,372.962z M 385.948,413.279c-8.573,14.788-53.469,31.824-76.77,31.824c-23.271,0.00-60.035,0.00-60.035,0.00S 229.858,480.00, 184.541,480.00
	c-45.367,0.00-42.315-20.219-42.315-37.476l0.00-69.783 l-20.55-21.705L 26.744,351.036 c0.00,0.00-26.744-17.689-26.744-55.918c0.00-38.239, 11.876-171.48, 91.538-183.798
	c 94.258-14.597, 110.391,29.204, 110.391,34.475c0.00,22.187, 0.562,55.808, 0.562,55.808s 27.608-52.736, 69.291-52.736c 41.673,0.00, 65.917-23.944, 65.917-48.61
	s0.00-45.628,0.00-45.628s-1.546-28.552-26.052-28.552c-24.536,0.00-52.314,0.00-52.314,0.00s-17.177,13.372-17.177,31.864s 8.403,23.512, 18.201,23.512
	c 9.808,0.00, 17.85-1.134, 17.85-1.134l0.00,38.902 c0.00,0.00-78.938,0.512-78.938-59.944c0.00-60.436, 41.281-75.957, 74.381-75.957c 33.069,0.00, 53.931,0.00, 53.931,0.00
	s 97.36,12.519, 97.36,204.88C 424.95,380.572, 394.541,398.461, 385.948,413.279z M 289.129,240.826c0.00,0.00, 4.749,31.724, 23.13,31.724
	c 18.402,0.00, 43.671-42.365, 43.671-42.365S 298.285,240.826, 289.129,240.826z" horiz-adv-x="431.6862745098039"  />
<glyph unicode="&#x31;" d="M 496.62,397.223C 496.62,440.714, 457.354,480.00, 413.844,480.00L 82.777,480.00 C 39.257,480.00,0.00,440.714,0.00,397.223
	L0.00,66.166 c0.00-43.50, 39.257-82.777, 82.777-82.777l 165.534,0.00 L 248.31,170.988 l-60.702,0.00 l0.00,82.777 l 60.702,0.00 l0.00,32.246 c0.00,55.611, 41.767,105.698, 93.115,105.698l 66.905,0.00 l0.00-82.767 
	l-66.905,0.00 c-7.316,0.00-15.862-8.881-15.862-22.203l0.00-32.975 l 82.767,0.00 l0.00-82.777 l-82.767,0.00 l0.00-187.609 l 88.29,0.00 c 43.51,0.00, 82.767,39.276, 82.767,82.777L 496.62,397.223 z" horiz-adv-x="502.1538461538462"  />
<glyph unicode="&#x32;" d="M 229.868,319.816l-78.285,0.00 l0.00,51.343 c0.00,19.282, 12.769,23.777, 21.77,23.777c 8.98,0.00, 55.245,0.00, 55.245,0.00L 228.598,479.703 L 152.525,480.00
	C 68.055,480.00, 48.845,416.778, 48.845,376.32l0.00-56.504 L0.00,319.816 l0.00-87.337 l 48.845,0.00 c0.00-112.097,0.00-247.163,0.00-247.163l 102.748,0.00 c0.00,0.00,0.00,136.397,0.00,247.163l 69.315,0.00 L 229.868,319.816z" horiz-adv-x="245.76"  />
<glyph unicode="&#x33;" d="M 396.238,149.459
	c 1.405,7.499, 2.369,15.029, 2.409,22.578c 0.392,94.529-50.999,131.393-105.412,162.896c 15.752-82.793-35.218-133.893-98.535-116.003
	C 287.262,370.301, 152.586,370.663, 193.747,480.00C 130.45,435.034, 66.962,309.203, 67.152,217.374c 0.03-24.255, 2.48-46.803, 6.997-67.453
	C 28.602,131.669,0.00,105.808,0.00,77.136c0.00-55.125, 105.442-100.081, 234.717-100.081c 129.295,0.00, 234.697,44.956, 234.697,100.081
	C 469.414,105.587, 441.203,131.238, 396.238,149.459z M 144.896,269.628c-17.508-78.938, 29.425-137.738, 74.621-138.31
	c 50.999-0.371, 81.217,47.265, 95.624,109.699c 27.076-20.681, 41.07-49.503, 42.867-78.898c-0.07,0.02-0.141,0.04-0.211,0.06
	c 2.068-33.29-11.545-67.303-39.805-91.086c-0.141-0.131-0.291-0.261-0.432-0.381c-6.074-5.07-12.84-9.638-20.259-13.663
	c-0.663-0.341-1.355-0.683-2.018-1.034c-2.982-1.546-6.064-2.982-9.216-4.337c-0.924-0.402-1.827-0.793-2.741-1.165
	c-7.78-3.122-16.133-5.652-25.078-7.519c-1.255-0.251-2.53-0.482-3.805-0.703c-3.373-0.622-6.837-1.144-10.36-1.576
	c-1.385-0.181-2.761-0.361-4.166-0.492c-4.809-0.472-9.708-0.833-14.788-0.934c-3.554-0.07-7.068,0.07-10.541,0.301
	c-0.914,0.06-1.827,0.161-2.741,0.221c-2.941,0.261-5.873,0.632-8.764,1.114c-0.542,0.09-1.104,0.151-1.636,0.241
	c-3.494,0.632-6.937,1.405-10.33,2.329c-0.422,0.12-0.833,0.251-1.235,0.371c-3.162,0.904-6.275,1.938-9.326,3.102
	c-0.321,0.131-0.643,0.231-0.974,0.371c-41.934,16.484-72.423,57.314-70.797,114.076c-0.08-0.02-0.141-0.04-0.211-0.06
	C 109.488,192.989, 120.33,229.532, 144.896,269.628z" horiz-adv-x="471.84313725490193"  />
<glyph unicode="&#x34;" d="M 438.282-5.446L 230.52,473.083C 228.703,477.289, 224.557,480.00, 219.969,480.00l0.00,0.00c-4.588,0.00-8.734-2.711-10.541-6.897L 0.964-5.426
	c-1.556-3.574-1.205-7.69, 0.924-10.943C 4.016-19.602, 7.63-21.559, 11.505-21.559l 184.912,0.00 L 196.417,80.098 l-49.544,34.364l 8.182,11.786l 41.352-28.662l0.00,81.468 
	l 47.084,0.00 l0.00-53.529 l 43.098,21.725l 6.485-12.84l-49.574-24.968l0.00-39.464 l 79.119,39.886l 6.475-12.81l-85.584-43.159l0.00-75.445 l 184.22,0.00 
	c 3.885,0.00, 7.479,1.938, 9.628,5.20C 439.477-13.136, 439.828-9.00, 438.282-5.446z" horiz-adv-x="451.7647058823529"  />
<glyph unicode="&#x35;" d="M 216.195,359.37c0.00,0.345-0.167,0.631-0.202,0.976c-0.095-1.226-0.202-2.453-0.345-3.667
	C 215.909,357.549, 216.195,358.418, 216.195,359.37z M 113.176,261.257c 0.191,0.00, 0.333,0.083, 0.512,0.107c-0.738-0.036-1.465-0.083-2.203-0.107
	L 113.176,261.257 z M 0.357,398.616c0.00-2.31, 0.917-4.334, 2.239-6.013C 3.739,397.83, 5.263,402.914, 7.144,407.82C 3.227,406.534, 0.357,402.962, 0.357,398.616z
	 M 108.223,261.102c 1.095,0.00, 2.179,0.119, 3.263,0.155L 105.186,261.257 C 106.21,261.233, 107.199,261.102, 108.223,261.102z M 216.195,398.616
	c0.00,4.394-2.941,7.978-6.93,9.216c 1.881-4.941, 3.477-10.038, 4.632-15.312C 215.266,394.222, 216.195,396.282, 216.195,398.616z M 132.799,477.107L 122.999,477.107 
	c-0.667,0.00-1.322-0.143-1.893-0.381c 5.608-0.667, 11.062-1.75, 16.36-3.239C 136.883,475.547, 135.061,477.107, 132.799,477.107z M 93.553,477.107
	L 83.754,477.107 c-2.25,0.00-4.072-1.548-4.656-3.62C 84.385,474.951, 89.802,476.071, 95.387,476.749C 94.827,476.964, 94.22,477.107, 93.553,477.107z M 103.376,261.257
	l 1.822,0.00 c-0.81,0.012-1.619,0.071-2.441,0.119C 102.972,261.364, 103.162,261.257, 103.376,261.257z M 477.47,257.804
	c-10.24,7.478-9.978,4.31-17.991-3.632C 422.698,224.143, 285.339,107.657, 285.339,107.657s-20.432-8.18-25.886,0.00L 136.764,240.848
	c0.00,0.00-62.738-2.572-86.98,10.24l 193.155-258.834c0.00,0.00, 24.695-15.003, 45.675,2.441l 215.481,201.871c 13.895,8.99, 2.31,24.731, 2.31,24.731
	S 489.889,248.767, 477.47,257.804z M 98.471,266.175c0.00,2.703, 2.203,4.906, 4.906,4.906l 9.811,0.00 c 2.715,0.00, 4.906-2.203, 4.906-4.906
	c0.00-2.524-1.941-4.537-4.394-4.799c 40.722,2.036, 75.431,26.588, 92.10,61.452c-0.81-1.584-2.417-2.691-4.31-2.691
	c-2.715,0.00-4.906,2.203-4.906,4.906c0.00,2.703, 2.203,4.906, 4.906,4.906c 2.703,0.00, 4.906-2.215, 4.906-4.906
	c0.00-0.583-0.155-1.131-0.333-1.655c 4.858,10.323, 8.204,21.492, 9.597,33.292c-1.191-4.084-4.799-7.108-9.264-7.108
	c-5.43,0.00-9.811,4.382-9.811,9.811c0.00,5.418, 4.382,9.811, 9.811,9.811c 5.084,0.00, 9.097-3.905, 9.609-8.847
	c 0.25,2.977, 0.452,5.953, 0.452,9.002c0.00,7.978-0.929,15.717-2.548,23.195c-1.786-2.227-4.429-3.727-7.513-3.727
	c-5.43,0.00-9.811,4.382-9.811,9.811s 4.382,9.811, 9.811,9.811c 1.012,0.00, 1.965-0.298, 2.881-0.595c-12.133,31.792-38.769,56.356-71.835,65.643
	c 0.119-0.417, 0.25-0.822, 0.25-1.274c0.00-2.715-2.203-4.906-4.906-4.906l-9.811,0.00 c-2.715,0.00-4.906,2.203-4.906,4.906
	c0.00,2.036, 1.238,3.786, 3.001,4.513C 116.855,477.226, 112.58,477.559, 108.211,477.559c-4.346,0.00-8.621-0.333-12.836-0.822
	c 1.798-0.738, 3.072-2.477, 3.072-4.537c0.00-2.703-2.203-4.906-4.906-4.906L 83.73,467.295 c-2.715,0.00-4.906,2.203-4.906,4.906
	c0.00,0.452, 0.143,0.869, 0.25,1.286C 45.961,464.235, 19.289,439.612, 7.156,407.82c 0.964,0.31, 1.941,0.607, 3.024,0.607
	c 5.43,0.00, 9.811-4.394, 9.811-9.811S 15.598,388.804, 10.169,388.804c-3.108,0.00-5.751,1.536-7.561,3.786C 0.953,385.101,0.00,377.338,0.00,369.348
	c0.00-3.191, 0.202-6.323, 0.464-9.43c 0.298,5.156, 4.477,9.287, 9.704,9.287c 5.43,0.00, 9.811-4.394, 9.811-9.811
	c0.00-5.43-4.394-9.811-9.811-9.811c-5.037,0.00-9.037,3.846-9.597,8.728c 2.965-29.172, 17.563-54.855, 39.043-72.478
	c 0.012,2.703, 2.203,4.882, 4.906,4.882l 9.811,0.00 c 2.715,0.00, 4.906-2.203, 4.906-4.906c0.00-2.703-2.203-4.906-4.906-4.906L 46.163,280.903 
	c 16.182-11.359, 35.578-18.444, 56.594-19.504C 100.364,261.709, 98.471,263.674, 98.471,266.175z M 108.282,290.703c-5.418,0.00-9.811,4.382-9.811,9.811
	s 4.394,9.811, 9.811,9.811s 9.811-4.394, 9.811-9.811S 113.70,290.703, 108.282,290.703z M 167.15,388.804c-5.43,0.00-9.811,4.382-9.811,9.811
	s 4.382,9.811, 9.811,9.811c 5.43,0.00, 9.811-4.394, 9.811-9.811S 172.568,388.804, 167.15,388.804z M 176.95,359.37
	c0.00-5.43-4.382-9.811-9.811-9.811c-5.43,0.00-9.811,4.382-9.811,9.811c0.00,5.418, 4.382,9.811, 9.811,9.811
	C 172.568,369.182, 176.95,364.788, 176.95,359.37z M 147.527,408.427c-5.418,0.00-9.811,4.382-9.811,9.811s 4.394,9.811, 9.811,9.811
	s 9.811-4.394, 9.811-9.811S 152.945,408.427, 147.527,408.427z M 147.527,388.804c 5.418,0.00, 9.811-4.394, 9.811-9.811c0.00-5.418-4.394-9.811-9.811-9.811
	s-9.811,4.394-9.811,9.811C 137.704,384.423, 142.11,388.804, 147.527,388.804z M 108.282,349.559c 5.418,0.00, 9.811-4.394, 9.811-9.811
	s-4.394-9.811-9.811-9.811S 98.471,334.33, 98.471,339.748S 102.864,349.559, 108.282,349.559z M 88.659,349.559c-5.43,0.00-9.811,4.382-9.811,9.811
	c0.00,5.418, 4.382,9.811, 9.811,9.811c 5.418,0.00, 9.811-4.406, 9.811-9.811C 98.471,353.953, 94.077,349.559, 88.659,349.559z M 127.905,329.936
	c 5.418,0.00, 9.811-4.394, 9.811-9.811s-4.394-9.811-9.811-9.811c-5.43,0.00-9.811,4.382-9.811,9.811S 122.475,329.936, 127.905,329.936z
	 M 127.905,349.559c-5.43,0.00-9.811,4.382-9.811,9.811c0.00,5.418, 4.382,9.811, 9.811,9.811c 5.418,0.00, 9.811-4.406, 9.811-9.811
	C 137.704,353.953, 133.322,349.559, 127.905,349.559z M 147.527,349.559c 5.418,0.00, 9.811-4.394, 9.811-9.811s-4.394-9.811-9.811-9.811
	s-9.811,4.382-9.811,9.811S 142.11,349.559, 147.527,349.559z M 127.905,388.804c-5.43,0.00-9.811,4.382-9.811,9.811s 4.382,9.811, 9.811,9.811
	c 5.418,0.00, 9.811-4.394, 9.811-9.811S 133.322,388.804, 127.905,388.804z M 108.282,408.427c-5.418,0.00-9.811,4.382-9.811,9.811
	s 4.394,9.811, 9.811,9.811s 9.811-4.394, 9.811-9.811S 113.70,408.427, 108.282,408.427z M 108.282,388.804c 5.418,0.00, 9.811-4.394, 9.811-9.811
	c0.00-5.418-4.394-9.811-9.811-9.811S 98.471,373.575, 98.471,378.993C 98.471,384.423, 102.864,388.804, 108.282,388.804z M 88.659,388.804
	c-5.43,0.00-9.811,4.382-9.811,9.811S 83.23,408.427, 88.659,408.427c 5.418,0.00, 9.811-4.394, 9.811-9.811S 94.077,388.804, 88.659,388.804z M 69.037,408.427
	c-5.418,0.00-9.811,4.382-9.811,9.811s 4.394,9.811, 9.811,9.811s 9.811-4.394, 9.811-9.811S 74.454,408.427, 69.037,408.427z M 69.037,388.804
	c 5.418,0.00, 9.811-4.394, 9.811-9.811c0.00-5.418-4.394-9.811-9.811-9.811S 59.225,373.575, 59.225,378.993C 59.225,384.423, 63.619,388.804, 69.037,388.804z
	 M 49.414,388.804c-5.43,0.00-9.811,4.382-9.811,9.811S 43.984,408.427, 49.414,408.427c 5.418,0.00, 9.811-4.394, 9.811-9.811S 54.832,388.804, 49.414,388.804z
	 M 49.414,369.182c 5.418,0.00, 9.811-4.406, 9.811-9.811c0.00-5.43-4.394-9.811-9.811-9.811c-5.43,0.00-9.811,4.382-9.811,9.811
	C 39.603,364.788, 43.984,369.182, 49.414,369.182z M 69.037,349.559c 5.418,0.00, 9.811-4.394, 9.811-9.811s-4.394-9.811-9.811-9.811
	s-9.811,4.382-9.811,9.811S 63.619,349.559, 69.037,349.559z M 88.659,329.936c 5.418,0.00, 9.811-4.394, 9.811-9.811S 94.077,310.326, 88.659,310.326
	c-5.43,0.00-9.811,4.382-9.811,9.811S 83.23,329.936, 88.659,329.936z M 127.905,271.08c-5.43,0.00-9.811,4.382-9.811,9.811
	c0.00,5.43, 4.382,9.811, 9.811,9.811c 5.418,0.00, 9.811-4.394, 9.811-9.811C 137.704,275.45, 133.322,271.08, 127.905,271.08z M 147.527,290.703
	c-5.418,0.00-9.811,4.382-9.811,9.811s 4.394,9.811, 9.811,9.811s 9.811-4.394, 9.811-9.811S 152.945,290.703, 147.527,290.703z M 162.233,280.88
	c-2.715,0.00-4.906,2.203-4.906,4.906c0.00,2.703, 2.203,4.906, 4.906,4.906c 2.703,0.00, 4.906-2.203, 4.906-4.906
	C 167.15,283.082, 164.959,280.88, 162.233,280.88z M 167.15,310.326c-5.43,0.00-9.811,4.382-9.811,9.811s 4.382,9.811, 9.811,9.811
	c 5.43,0.00, 9.811-4.394, 9.811-9.811S 172.568,310.326, 167.15,310.326z M 182.272,299.693c-2.953,0.00-5.322,2.381-5.322,5.322
	c0.00,2.929, 2.369,5.311, 5.322,5.311c 2.929,0.00, 5.311-2.381, 5.311-5.311C 187.583,302.074, 185.201,299.693, 182.272,299.693z M 186.773,329.936
	c-5.418,0.00-9.811,4.382-9.811,9.811s 4.394,9.811, 9.811,9.811s 9.811-4.394, 9.811-9.811S 192.191,329.936, 186.773,329.936z M 186.773,369.182
	c-5.418,0.00-9.811,4.394-9.811,9.811c0.00,5.43, 4.394,9.811, 9.811,9.811s 9.811-4.394, 9.811-9.811
	C 196.572,373.575, 192.191,369.182, 186.773,369.182z M 186.773,428.05c 5.418,0.00, 9.811-4.394, 9.811-9.811s-4.394-9.811-9.811-9.811
	s-9.811,4.382-9.811,9.811S 181.343,428.05, 186.773,428.05z M 167.15,447.673c 5.43,0.00, 9.811-4.394, 9.811-9.811s-4.382-9.811-9.811-9.811
	c-5.43,0.00-9.811,4.382-9.811,9.811S 161.721,447.673, 167.15,447.673z M 147.527,467.295c 5.418,0.00, 9.811-4.394, 9.811-9.811
	s-4.394-9.811-9.811-9.811s-9.811,4.382-9.811,9.811S 142.11,467.295, 147.527,467.295z M 127.905,447.673c 5.418,0.00, 9.811-4.394, 9.811-9.811
	s-4.394-9.811-9.811-9.811c-5.43,0.00-9.811,4.382-9.811,9.811S 122.475,447.673, 127.905,447.673z M 108.282,467.295
	c 5.418,0.00, 9.811-4.394, 9.811-9.811S 113.70,447.673, 108.282,447.673S 98.471,452.054, 98.471,457.484S 102.864,467.295, 108.282,467.295z M 88.659,447.673
	c 5.418,0.00, 9.811-4.394, 9.811-9.811S 94.077,428.05, 88.659,428.05c-5.43,0.00-9.811,4.382-9.811,9.811S 83.23,447.673, 88.659,447.673z M 69.037,467.295
	c 5.418,0.00, 9.811-4.394, 9.811-9.811S 74.454,447.673, 69.037,447.673S 59.225,452.054, 59.225,457.484S 63.619,467.295, 69.037,467.295z M 49.414,447.673
	c 5.418,0.00, 9.811-4.394, 9.811-9.811S 54.832,428.05, 49.414,428.05c-5.43,0.00-9.811,4.382-9.811,9.811S 43.984,447.673, 49.414,447.673z M 29.791,428.05
	c 5.418,0.00, 9.811-4.394, 9.811-9.811S 35.209,408.427, 29.791,408.427S 19.98,412.809, 19.98,418.239S 24.374,428.05, 29.791,428.05z M 29.791,388.804
	c 5.418,0.00, 9.811-4.394, 9.811-9.811c0.00-5.418-4.394-9.811-9.811-9.811S 19.98,373.575, 19.98,378.993C 19.98,384.423, 24.374,388.804, 29.791,388.804z
	 M 15.074,320.125c-2.715,0.00-4.906,2.203-4.906,4.906c0.00,2.703, 2.203,4.906, 4.906,4.906s 4.906-2.215, 4.906-4.906
	C 19.98,322.328, 17.789,320.125, 15.074,320.125z M 19.98,339.748c0.00,5.43, 4.394,9.811, 9.811,9.811s 9.811-4.394, 9.811-9.811
	s-4.394-9.811-9.811-9.811S 19.98,334.33, 19.98,339.748z M 34.697,300.502c-2.715,0.00-4.906,2.203-4.906,4.906
	c0.00,2.703, 2.191,4.906, 4.906,4.906s 4.906-2.203, 4.906-4.906C 39.603,302.705, 37.412,300.502, 34.697,300.502z M 49.414,310.326
	c-5.43,0.00-9.811,4.382-9.811,9.811s 4.382,9.811, 9.811,9.811c 5.418,0.00, 9.811-4.394, 9.811-9.811S 54.832,310.326, 49.414,310.326z M 69.037,290.703
	c-5.418,0.00-9.811,4.382-9.811,9.811s 4.394,9.811, 9.811,9.811s 9.811-4.394, 9.811-9.811S 74.454,290.703, 69.037,290.703z M 88.659,271.08
	c-5.43,0.00-9.811,4.382-9.811,9.811c0.00,5.43, 4.382,9.811, 9.811,9.811c 5.418,0.00, 9.811-4.394, 9.811-9.811
	C 98.471,275.45, 94.077,271.08, 88.659,271.08z M 283.148,275.462c0.00,0.00, 3.012-11.181, 12.55,0.81l 74.419,78.777l-65.155,73.597
	c0.00,0.00-21.814,20.444-34.09,4.096l-35.423-35.983c0.00,0.00, 4.358-36.793-0.81-55.058L 283.148,275.462z M 576.56,383.72L 498.962,480.00L 295.424,255.292
	c-9.085-10.907-12.729-1.822-12.729-1.822l-53.153,69.703c-27.255-56.332-74.049-77.955-74.049-77.955l 105.496-116.033
	c 11.716-13.36, 22.623,0.738, 22.623,0.738L 575.107,369.325C 575.107,369.325, 583.918,377.183, 576.56,383.72z M 0.357,359.37c0.00-0.381, 0.179-0.714, 0.214-1.084
	c-0.048,0.524-0.06,1.084-0.107,1.607C 0.452,359.716, 0.357,359.561, 0.357,359.37z M 39.603,285.785c0.00-2.715, 2.191-4.906, 4.906-4.906l 1.655,0.00 
	c-2.25,1.572-4.453,3.215-6.549,4.941C 39.615,285.821, 39.603,285.797, 39.603,285.785z" horiz-adv-x="583.4418604651163"  />
<glyph unicode="&#x36;" d="M 477.04,480.00c 8.481-19.298, 13.995-51.318, 5.79-74.791
	c 33.569-28.672, 45.109-98.37, 28.895-155.32c 47.865-3.65, 104.868,1.746, 141.666-12.931c-34.409,4.411-81.382,13.102-125.742,10.069
	c-8.415-0.565-20.874,0.328-20.257-11.50c 51.358-4.03, 102.387-8.428, 144.568-21.583c-41.826,6.84-92.593,17.237-144.568,18.695
	c-21.465-42.378-64.67-63.186-124.311-67.571c 6.393-13.955, 18.681-19.259, 21.688-41.708c 4.464-33.516-6.997-82.616, 4.306-104.973
	c 5.435-10.686, 14.283-10.988, 20.257-20.126c-14.612-17.29-50.819,1.917-54.955,20.126c-7.063,31.193, 10.765,79.544-8.665,100.667
	c 1.365-34.002-8.048-81.776, 1.444-112.154c 3.742-11.96, 14.52-16.568, 11.566-27.346c-67.886-6.879-39.529,87.88-50.622,143.806
	c-10.24-0.722-5.75-15.334-5.763-21.57c-0.302-54.626, 11.172-129.549-47.708-122.25c-1.72,11.474, 7.903,15.386, 11.553,25.889
	c 10.752,30.733-2.009,76.524, 2.928,113.611c-22.462-16.949, 2.35-76.091-11.566-106.404c-8.021-17.447-33.871-25.049-53.484-17.25
	c 2.547,12.997, 15.977,10.896, 21.662,23.001c 7.956,16.896, 0.053,41.209, 2.914,66.153c-41.603-8.297-73.859,1.208-89.639,27.32
	c-7.063,11.737-8.822,25.561-17.355,35.945c-8.494,10.398-22.069,11.789-25.994,25.876c 51.515,12.393, 53.484-53.012, 99.761-54.626
	c 14.178-0.512, 21.543,4.109, 34.685,7.181c 3.676,16.502, 11.54,28.79, 23.119,37.415c-57.554,7.877-105.091,25.81-127.199,69.002
	c-52.329-2.586-100.221-9.57-144.581-20.126c 40.251,14.625, 89.915,19.876, 143.137,21.596c-3.138,18.852-30.628,13.666-47.695,12.931
	C 65.142,245.635, 25.206,241.697,0.00,236.958c 36.562,13.036, 87.828,11.408, 137.347,11.50C 122.21,295.943, 127.449,371.377, 160.479,399.458
	C 151.106,423.05, 154.02,461.634, 166.256,480.00c 36.877-1.654, 59.234-17.736, 82.393-33.083c 28.725,8.166, 58.933,12.235, 98.291,10.069
	C 363.507,456.067, 380.718,448.637, 393.19,449.805c 12.249,1.142, 25.731,14.874, 37.586,20.126C 446.254,476.757, 459.356,479.37, 477.04,480.00z" horiz-adv-x="669.5384615384615"  />
<glyph unicode="&#x37;" d="M 545.436,398.625l-65.725,0.00 L 479.711,470.105 c0.00,5.454-4.063,9.895-9.082,9.895l-18.721,0.00 c-5.031,0.00-9.105-4.43-9.105-9.895l0.00-71.48 l-65.736,0.00 
	c-4.998,0.00-9.082-4.441-9.082-9.906l0.00-20.358 c0.00-5.465, 4.085-9.884, 9.082-9.884l 65.736,0.00 l0.00-71.502 c0.00-5.465, 4.074-9.895, 9.105-9.895l 18.721,0.00 
	c 5.02,0.00, 9.082,4.419, 9.082,9.895l0.00,71.502 l 65.725,0.00 c 5.009,0.00, 9.094,4.419, 9.094,9.884L 554.529,388.73 C 554.529,394.195, 550.445,398.625, 545.436,398.625zM 261.988,203.253c-17.586,12.444-33.581,30.709-33.859,36.319c0.00,10.229, 0.913,15.104, 23.83,32.957c 29.64,23.207, 45.958,53.704, 45.958,85.927
	c0.00,29.217-8.927,55.174-24.131,73.405l 11.787,0.00 c 2.449,0.00, 4.831,0.757, 6.79,2.182l 32.89,23.83c 4.085,2.927, 5.799,8.147, 4.23,12.922
	c-1.558,4.764-5.977,8.014-10.997,8.014L 171.386,478.809 c-16.095,0.00-32.445-2.838-48.495-8.359c-53.604-18.488-91.091-64.167-91.091-111.059
	c0.00-66.438, 51.467-116.792, 120.264-118.383c-1.347-5.265-2.026-10.44-2.026-15.538c0.00-10.24, 2.593-19.935, 7.936-29.306
	c-0.623-0.011-1.224-0.011-1.892-0.011c-65.581,0.00-124.772-32.178-147.245-80.061C 2.983,103.647,0.00,91.058,0.00,78.614
	c0.00-12.088, 3.105-23.73, 9.194-34.649c 14.125-25.266, 44.455-44.867, 85.448-55.218c 21.159-5.343, 43.898-8.081, 67.506-8.081
	c 21.215,0.00, 41.439,2.749, 60.138,8.159c 58.301,16.929, 95.989,59.837, 95.989,109.39C 318.286,145.775, 303.015,174.225, 261.988,203.253z M 76.21,94.408
	c0.00,34.582, 43.932,64.924, 94.008,64.924l 1.347-0.011c 10.897-0.122, 21.526-1.736, 31.555-4.808c 3.428-2.371, 6.745-4.63, 9.939-6.79
	c 23.196-15.805, 38.511-26.234, 42.785-42.986c 1.002-4.207, 1.503-8.426, 1.503-12.511c0.00-43.064-32.122-64.902-95.477-64.902
	C 113.831,27.325, 76.21,56.799, 76.21,94.408z M 121.767,421.176c 7.825,8.938, 18.076,13.657, 29.585,13.657l 1.302-0.022
	c 32.512-0.957, 63.622-37.187, 69.343-80.762c 3.206-24.398-2.215-47.338-14.492-61.329c-7.836-8.949-17.942-13.668-29.919-13.668c0.00,0.00,0.00,0.00-0.022,0.00
	l-0.523,0.00 c-31.844,0.968-63.622,38.589-69.309,82.109C 104.548,385.491, 109.668,407.363, 121.767,421.176z" horiz-adv-x="567.6521739130435"  />
<glyph unicode="&#x38;" d="M 252.988,480.00C 113.272,480.00,0.00,366.728,0.00,227.012
	s 113.272-252.988, 252.988-252.988c 139.706,0.00, 252.978,113.272, 252.978,252.988S 392.694,480.00, 252.988,480.00z M 389.23,149.168c-19.466,0.00-38.932,38.912-38.932,38.912
	s-27.668,97.34-155.678,116.766c 11.274-175.114-53.519-154.072-77.894-155.678C 92.411,147.561, 78.306,182.879, 78.306,227.012
	C 78.306,323.479, 156.521,401.694, 252.988,401.694c 96.467,0.00, 172.363-78.216, 174.682-174.672C 428.142,207.546, 408.666,149.168, 389.23,149.168z"  />
<glyph unicode="&#x39;" d="M0.00,480.00l 40.653-455.977l 182.497-50.647l 182.651,50.627L 446.515,480.00L0.00,480.00 z M 358.318,330.885L 223.242,330.885 l-78.93,0.00 
	l 5.089-57.272l 73.841,0.00 l 129.987,0.00 l-15.329-171.735l-114.657-31.764l-0.072-0.031l-114.565,31.785l-7.987,89.815l 56.125,0.00 l 4.157-46.592l 62.28-16.855
	l 0.061,0.041l0.00,0.00l 62.362,16.845l 6.523,72.53l-68.884,0.00 l0.00,0.00L 98.273,217.651 L 83.18,386.785l 140.063,0.00 l 140.073,0.00 L 358.318,330.885z" horiz-adv-x="460.8"  />
<glyph unicode="&#x3a;" d="M 409.549,480.00L 98.109,480.00 C 44.012,480.00,0.00,435.999,0.00,381.901l0.00-103.619 l0.00-207.831 c0.00-54.098, 44.012-98.099, 98.109-98.099l 311.439,0.00 
	c 54.098,0.00, 98.109,44.001, 98.109,98.099L 507.658,278.282 L 507.658,381.901 C 507.658,435.999, 463.647,480.00, 409.549,480.00z M 437.688,421.489l 11.223,0.041l0.00-11.172 l0.00-74.875 l-85.76-0.276
	l-0.287,86.036L 437.688,421.489z M 181.381,278.282c 16.251,22.497, 42.629,37.253, 72.448,37.253s 56.197-14.746, 72.448-37.253
	c 10.578-14.694, 16.906-32.645, 16.906-52.111c0.00-49.254-40.11-89.334-89.364-89.334c-49.275,0.00-89.354,40.079-89.354,89.334
	C 164.485,245.627, 170.803,263.588, 181.381,278.282z M 458.199,70.451c0.00-26.829-21.821-48.64-48.65-48.64L 98.109,21.811 c-26.829,0.00-48.65,21.811-48.65,48.64
	L 49.459,278.282 l 75.776,0.00 c-6.543-16.097-10.22-33.679-10.22-52.111c0.00-76.524, 62.259-138.813, 138.813-138.813s 138.813,62.29, 138.813,138.813
	c0.00,18.432-3.697,36.014-10.24,52.111l 75.796,0.00 L 458.199,70.451 z"  />
<glyph unicode="&#x3b;" d="M 708.813,273.135c-7.356,2.406-14.455,4.625-21.282,6.793c-52.173,16.401-83.627,26.30-83.627,66.901c0.00,32.939, 25.412,56.798, 60.433,56.798
	c 26.846,0.00, 46.831-11.127, 64.768-36.233c 1.69-2.338, 4.83-3.174, 7.441-1.792l 52.651,26.863c 1.417,0.70, 2.492,1.997, 2.935,3.533
	c 0.461,1.536, 0.29,3.174-0.495,4.574c-28.211,50.108-68.881,74.462-124.348,74.462c-84.395,0.00-138.957-51.063-138.957-130.065
	c0.00-80.794, 52.77-113.493, 150.101-145.527c 56.388-18.807, 81.34-28.774, 81.34-68.898c0.00-45.107-40.687-77.534-96.222-75.639
	c-58.163,1.963-75.793,32.802-97.963,83.302c-37.478,85.538-80.145,185.395-80.572,186.368C 442.18,423.373, 357.291,480.00, 252.075,480.00
	C 113.084,480.00,0.00,366.899,0.00,227.874c0.00-138.974, 113.084-252.075, 252.075-252.075c 75.81,0.00, 146.859,33.604, 194.953,92.228c 1.399,1.707, 1.724,3.994, 0.853,6.042
	l-31.761,73.335c-0.905,2.031-2.935,3.396-5.171,3.499c-2.304,0.102-4.369-1.161-5.393-3.14c-30.003-57.327-88.798-92.928-153.463-92.928
	c-95.386,0.00-172.971,77.602-172.971,173.039S 156.689,400.896, 252.075,400.896c 69.427,0.00, 133.069-41.199, 158.327-102.707l 78.592-179.268l 9.062-20.139
	c 35.55-82.773, 87.74-119.859, 169.523-120.166c 97.212,0.00, 170.513,64.427, 170.513,149.828C 838.093,214.272, 790.682,246.426, 708.813,273.135z" horiz-adv-x="853.3333333333334"  />
<glyph unicode="&#x3c;" d="M 528.863,170.164l0.00-195.53 L 415.526-25.366 L 415.526,157.059 c0.00,45.829-16.406,77.116-57.431,77.116
	c-31.319,0.00-49.958-21.09-58.161-41.472c-2.985-7.288-3.758-17.43-3.758-27.626l0.00-190.431 L 182.784-25.355 c0.00,0.00, 1.525,308.976,0.00,340.992l 113.381,0.00 l0.00-48.335 
	c-0.229-0.359-0.534-0.752-0.752-1.111l 0.752,0.00 l0.00,1.111 c 15.055,23.193, 41.962,56.342, 102.16,56.342
	C 472.946,323.633, 528.863,274.895, 528.863,170.164z M 64.174,480.00C 25.371,480.00,0.00,454.553,0.00,421.098c0.00-32.735, 24.641-58.945, 62.66-58.945l 0.752,0.00 
	c 39.533,0.00, 64.142,26.21, 64.142,58.945C 126.813,454.553, 102.956,480.00, 64.174,480.00z M 6.743-25.366l 113.348,0.00 L 120.091,315.626 L 6.743,315.626 L 6.743-25.366 z" horiz-adv-x="544.6808510638298"  />
<glyph unicode="&#x3d;" d="M 450.339-15.255l-72.644,52.595l-72.624-52.595
	l 27.728,85.123l-72.644,52.575l 89.801,0.00 l 27.748,85.133l 27.758-85.133l 89.801,0.00 l-72.634-52.575L 450.339-15.255L 450.339-15.255z M 311.959,63.122
	c-15.31,11.073-106.345,77.001-106.345,77.001s 112.55,0.00, 131.443,0.00c 5.843,17.95, 40.639,124.607, 40.639,124.607s 34.756-106.657, 40.589-124.607
	c 9.196,0.00, 40.498,0.00, 70.224,0.00L 377.695,480.00L 288.527,206.522L0.00,206.522 l 290.003-210.834C 299.269,24.129, 309.067,54.347, 311.959,63.122L 311.959,63.122z" horiz-adv-x="501.96078431372547"  />
<glyph unicode="&#x3e;" d="M 664.253,320.472L 664.253,480.00L0.00,480.00L0.00,319.192L0.00,319.192L0.00-21.881L 160.269-21.881L 160.269,319.192L 251.998,319.192L 251.998-21.881L 412.254-21.881L 412.254,319.192L 503.983,319.192L 503.983-21.881L 664.253-21.881L 664.253,320.472 z" horiz-adv-x="673.6842105263157"  />
<glyph unicode="&#x3f;" d="M 338.606,314.819c-45.701,0.00-82.78,36.987-82.78,82.575
	C 255.826,443.003, 292.905,480.00, 338.606,480.00s 82.77-36.997, 82.77-82.596C 421.376,351.805, 384.307,314.819, 338.606,314.819L 338.606,314.819z M 270.889,235.244
	c0.00,45.619-37.048,82.575-82.78,82.575c-45.722,0.00-82.77-36.956-82.77-82.575c0.00-1.874, 0.154-3.676, 0.276-5.519l-0.276,0.00 L 105.339,86.579 l 165.55,0.00 L 270.889,229.724 
	l-0.287,0.00 C 270.725,231.567, 270.889,233.37, 270.889,235.244L 270.889,235.244z M 188.109,328.858c 33.516,0.00, 60.692,27.095, 60.692,60.559
	c0.00,33.423-27.167,60.559-60.692,60.559c-33.495,0.00-60.692-27.126-60.692-60.559C 127.416,355.953, 154.614,328.858, 188.109,328.858L 188.109,328.858z
	 M 451.482,187.177c0.00,62.218-50.524,112.64-112.865,112.64s-112.865-50.412-112.865-112.64c0.00-2.529, 0.205-5.018, 0.369-7.485l-0.369,0.00 l0.00-195.226 L 451.482-15.534 L 451.482,179.681 
	l-0.369,0.00 C 451.277,182.159, 451.482,184.648, 451.482,187.177L 451.482,187.177z M 67.727,326.83C 30.30,326.83,0.00,296.602,0.00,259.267
	c0.00-1.516, 0.123-3.011, 0.215-4.516L0.00,254.751 l0.00-117.135 l 135.444,0.00 L 135.444,254.751 l-0.215,0.00 c 0.092,1.505, 0.215,3.00, 0.215,4.516
	C 135.444,296.602, 105.134,326.83, 67.727,326.83L 67.727,326.83z M 67.727,335.831c 27.412,0.00, 49.654,22.19, 49.654,49.551
	c0.00,27.372-22.241,49.551-49.654,49.551c-27.433,0.00-49.684-22.19-49.684-49.551C 18.053,358.031, 40.305,335.831, 67.727,335.831L 67.727,335.831z" horiz-adv-x="460.8"  />
<glyph unicode="&#x40;" d="M 149.373,155.543l 60.185,43.63c 5.501-3.484, 11.957-5.532, 18.964-5.532
	c 19.627,0.00, 35.569,15.932, 35.569,35.619c0.00,19.647-15.942,35.579-35.569,35.579c-19.667,0.00-35.609-15.932-35.609-35.579
	c0.00-1.486, 0.12-2.931, 0.271-4.407l-43.811-31.744l0.00,99.037 l 60.637,43.942c 5.431-3.283, 11.706-5.23, 18.512-5.23
	c 19.627,0.00, 35.569,15.932, 35.569,35.579s-15.942,35.609-35.569,35.609c-19.667,0.00-35.609-15.962-35.609-35.609c0.00-1.646, 0.141-3.313, 0.381-4.909
	l-43.922-31.834L 149.373,480.00 l-34.665,0.00 l0.00-79.33 L 70.546,432.635c 0.392,2.138, 0.622,4.307, 0.622,6.576c0.00,19.647-15.962,35.579-35.609,35.579
	C 15.922,474.79,0.00,458.857,0.00,439.211C0.00,419.554, 15.922,403.602, 35.559,403.602c 6.214,0.00, 12.047,1.606, 17.127,4.387l 62.022-44.895l0.00-99.037 l-44.102,31.925
	c 0.351,1.938, 0.562,3.955, 0.562,5.973c0.00,19.707-15.962,35.619-35.609,35.619C 15.922,337.584,0.00,321.672,0.00,301.965
	c0.00-19.627, 15.922-35.559, 35.559-35.559c 6.415,0.00, 12.408,1.707, 17.589,4.648l 61.56-44.554l0.00-105.623 l-44.052,31.925
	c 0.301,1.907, 0.512,3.855, 0.512,5.843c0.00,19.647-15.962,35.599-35.609,35.599C 15.922,194.244,0.00,178.291,0.00,158.645s 15.922-35.589, 35.559-35.589
	c 6.465,0.00, 12.499,1.767, 17.709,4.749l 61.45-44.474l0.00-105.783 l 2.871,0.00 l 30.429,0.00 l 1.365,0.00 l0.00,34.866 l 60.065,43.47c 5.512-3.474, 12.027-5.552, 19.075-5.552
	c 19.627,0.00, 35.569,15.932, 35.569,35.589c0.00,19.647-15.942,35.569-35.569,35.569c-19.667,0.00-35.609-15.922-35.609-35.569
	c0.00-1.446, 0.12-2.841, 0.251-4.227l-43.791-31.754L 149.373,155.543 z" horiz-adv-x="281.0980392156863"  />
<glyph unicode="&#x41;" d="M 318.494,480.00L 97.782,480.00 L0.00,31.137l 129.506,0.00 l 31.724,148.721l 92.521,0.00 c 88.506,0.00, 162.525,54.573, 182.372,147.366
	C 458.531,432.274, 383.197,480.00, 318.494,480.00z M 221.937,265.823l-42.215,0.00 l 27.738,122.78l 63.438,0.00 c 21.755,0.00, 38.249-12.961, 43.661-31.995
	c-2.781,0.482-5.361,1.315-8.393,1.315l-63.428,0.00 L 221.937,265.823z M 314.519,327.223c-7.73-33.32-39.394-59.914-71.63-61.159l 15.179,67.343
	l 57.495,0.00 C 315.221,331.339, 315.081,329.362, 314.519,327.223z M 471.381,296.563c 7.429,34.786, 3.976,63.147-6.074,85.725
	c 20.992-25.038, 31.854-61.35, 21.414-110.251c-19.848-92.792-93.877-147.356-182.362-147.356L 211.827,124.682 l-31.724-148.721L 50.598-24.039 l 5.371,24.536l 108.805,0.00 
	l 31.724,148.721l 92.511,0.00 C 377.515,149.208, 451.534,203.761, 471.381,296.563z" horiz-adv-x="501.96078431372547"  />
<glyph unicode="&#x42;" d="M 349.134,457.823C 316.868,472.471, 282.584,480.00, 247.186,480.00c-29.475,0.00-58.428-5.702-86.327-16.133c 6.556-5.943, 179.832-163.238, 188.275-170.898
	C 349.134,304.334, 349.134,454.33, 349.134,457.823L 349.134,457.823zM 119.949,21.609c0.00,9.668,0.00,201.196,0.00,212.57c-8.262-7.489-99.298-90.232-102.139-92.823C 37.627,91.663, 73.788,49.549, 119.949,21.609
	L 119.949,21.609zM0.00,232.744c0.00-21.193, 3.182-42.807, 8.995-64.211c 6.666,6.094, 214.809,195.213, 219.096,199.138c-4.156,3.765-90.714,82.332-93.545,84.922
	C 51.551,409.976,0.00,325.978,0.00,232.744L0.00,232.744zM 145.92,125.315c0.00-5.14,0.00-114.427,0.00-117.961c 25.128-11.294, 51.441-18.271, 78.487-20.781l 45.337,0.00 c 85.414,7.961, 161.631,60.627, 199.529,138.742
	C 460.348,125.315, 151.231,125.315, 145.92,125.315L 145.92,125.315zM 375.196,443.648c0.00-9.808,0.00-287.041,0.00-292.292c 5.06,0.00, 101.296,0.00, 105.201,0.00c 9.196,26.373, 14.025,53.73, 14.025,81.388
	C 494.421,318.69, 448.743,398.883, 375.196,443.648L 375.196,443.648z"  />
<glyph unicode="&#x43;" d="M 209.275,480.00C 70.154,480.00,0.00,380.262,0.00,297.083c0.00-50.36, 19.067-95.16, 59.955-111.852c 6.707-2.755, 12.718-0.102, 14.664,7.322
	c 1.352,5.13, 4.557,18.094, 5.98,23.511c 1.956,7.332, 1.198,9.902-4.219,16.312c-11.786,13.896-19.333,31.908-19.333,57.426
	c0.00,73.994, 55.368,140.227, 144.169,140.227c 78.633,0.00, 121.836-48.046, 121.836-112.20c0.00-84.429-37.356-155.699-92.826-155.699
	c-30.628,0.00-53.555,25.334-46.213,56.412c 8.806,37.089, 25.846,77.117, 25.846,103.905c0.00,23.962-12.861,43.95-39.485,43.95
	c-31.314,0.00-56.474-32.399-56.474-75.786c0.00-27.638, 9.339-46.336, 9.339-46.336S 91.197,108.503, 85.576,84.705
	c-11.182-47.36-1.679-105.40-0.87-111.258c 0.471-3.482, 4.936-4.311, 6.963-1.69c 2.877,3.768, 40.182,49.818, 52.859,95.826
	c 3.594,13.025, 20.593,80.486, 20.593,80.486c 10.179-19.415, 39.905-36.485, 71.526-36.485c 94.126,0.00, 157.993,85.801, 157.993,200.663
	C 394.639,399.114, 321.075,480.00, 209.275,480.00z" horiz-adv-x="409.6"  />
<glyph unicode="&#x44;" d="M 70.556,218.689c 1.355-17.769, 5.411-60.416, 14.326-84.058c-10.953,1.968-22.98,4.347-34.635,6.817
	c-12.619,2.68-25.429,4.186-33.722,10.581C 8.072,158.534, 0.11,169.638,0.00,185.038c-0.161,21.765, 16.123,39.685, 37.035,41.613
	C 49.604,227.825, 59.472,222.856, 70.556,218.689z M 312.179,419.524c-18.482,30.75-50.096,64.321-101.858,60.115
	c-26.534-2.179-46.702-15.149-62.825-29.074c-32.156-27.758-54.352-67.253-64.151-115.581c-5.522-27.287-5.973-54.523-5.301-83.225
	c 0.371-15.119, 0.321-29.114, 1.988-42.948c 4.869-40.227, 11.766-76.941, 24.486-110.271c 12.027-31.573, 28.672-61.099, 49.594-85.213
	c 7.218-8.312, 15.43-18.653, 22.488-22.468c 26.684-14.356, 57.414,3.423, 56.862,31.724c-0.251,13.904-5.783,17.719-12.549,27.066
	c-3.925,5.421-7.519,11.656-10.591,17.167c-1.416,2.55-2.811,5.15-4.186,7.76l-0.01,0.00 c0.00,0.00-23.371,27.507-38.601,105.422
	c-3.604,16.755-6.305,34.404-7.881,52.626c0.00,0.09-0.01,0.171-0.02,0.251l 0.01,0.00 c-1.014,11.826-1.556,23.863-1.556,36.061
	c0.00,49.353, 8.092,90.483, 30.419,118.884c 6.325,8.031, 19.024,19.366, 32.417,19.155c 21.133-0.371, 31.804-22.408, 37.035-38.32
	c 13.754-41.924, 6.837-94.047-7.941-128.131c-7.951-18.301-16.916-33.912-33.732-42.265c-13.192-6.566-27.939-6.054-41.542-2.921
	c0.00,0.00-1.998-20.922, 20.721-81.318c 23.16-0.843, 42.044,6.546, 57.846,16.193c 48.248,29.445, 79.39,88.154, 85.976,156.541
	C 344.405,339.732, 332.268,386.093, 312.179,419.524z" horiz-adv-x="351.37254901960785"  />
<glyph unicode="&#x45;" d="M 307.28,480.00L 127.167,480.00 L 63.578,480.00 L0.00,480.00 l0.00-501.288 l 127.167,0.00 L 127.167,117.333 l 307.29,0.00 l0.00,21.052 l0.00,105.111 L 434.457,480.00 l-26.524,0.00 L 307.28,480.00 z
	 M 307.28,243.496L 127.167,243.496 L 127.167,353.847 l 180.124,0.00 L 307.29,243.496 z" horiz-adv-x="451.7647058823529"  />
<glyph unicode="&#x46;" d="M 60.617-27.071L 60.617,164.789 l 1.486,3.554l 5.552,0.00 l 1.044-1.747c 20.781-34.224, 61.189-54.653, 108.112-54.653
	c 80.253,0.00, 161.24,58.619, 161.24,189.571C 338.04,406.623, 276.37,480.00, 188.004,480.00C 132.327,480.00, 88.988,456.729, 62.735,412.657L 60.245,410.95L 54.864,410.95 
	L 51.16,472.571L0.00,472.571 C 1.536,437.735, 2.851,402.578, 2.851,358.766l0.00-385.837 L 60.617-27.071 z M 60.617,325.326c0.00,7.027, 1.486,15.581, 4.558,26.785
	C 77.061,400.941, 119.266,435.085, 167.856,435.085c 65.345,0.00, 110.953-56.149, 110.953-136.543c0.00-86.528-44.444-142.436-113.212-142.436
	c-48.449,0.00-89.449,31.784-101.868,79.099c-2.118,7.74-3.112,16.575-3.112,27.728L 60.617,325.326 z" horiz-adv-x="351.37254901960785"  />
<glyph unicode="&#x47;" d="M 434.188,204.386c 1.56-3.998, 2.28-8.143, 2.28-12.264c0.00-8.265-2.865-16.311-7.656-22.882
	c-4.754-6.473-11.471-11.508-19.383-13.726l 0.024,0.00 c-0.073-0.024-0.146-0.024-0.183-0.037c-0.024,0.00-0.085-0.037-0.11-0.037
	c-3.706-1.268-7.497-1.865-11.264-1.865c-8.838,0.00-17.506,3.194-24.43,8.619c-6.875,5.388-12.093,13.166-13.726,22.37l-0.012,0.00 
	c0.00,0.024,0.00,0.061-0.012,0.098c0.00,0.024,0.00,0.049-0.037,0.085l 0.037,0.00 c-0.512,2.377-0.768,4.754-0.768,7.095
	c0.00,7.973, 2.718,15.628, 7.192,21.955c 4.462,6.29, 10.764,11.288, 18.127,13.861c 0.037,0.00, 0.061,0.012, 0.061,0.012
	c 0.037,0.00, 0.037,0.024, 0.061,0.024c 4.181,1.548, 8.582,2.316, 12.934,2.316c 7.936,0.00, 15.75-2.402, 22.345-6.802
	c 6.498-4.328, 11.788-10.679, 14.434-18.554c 0.037-0.049, 0.037-0.098, 0.061-0.146c0.00-0.049, 0.037-0.073, 0.061-0.122L 434.188,204.386 z M 409.905,106.569
	c-3.109,2.011-6.705,3.243-10.508,3.243c-3.072,0.00-6.266-0.866-9.094-2.767l0.00,0.00c-26.831-16.006-58.392-24.783-89.722-24.783
	c-23.503,0.00-46.872,4.962-68.035,15.36l-0.11,0.061l-0.11,0.037c-3.194,1.292-6.827,4.084-10.789,6.729
	c-2.024,1.292-4.12,2.597-6.461,3.547c-2.304,1.00-4.864,1.682-7.607,1.682c-2.267,0.00-4.657-0.512-6.997-1.585
	c-0.122-0.049-0.244-0.098-0.354-0.146l 0.012,0.00 c-3.682-1.402-6.571-3.974-8.424-7.034c-1.938-3.157-2.889-6.827-2.889-10.459
	c0.00-3.304, 0.768-6.595, 2.377-9.582c 1.524-2.828, 3.889-5.315, 6.973-6.961c 30.257-20.419, 65.877-29.659, 101.644-29.623
	c 32.256,0.00, 64.683,7.448, 93.562,21.053l 0.171,0.098l 0.146,0.073c 3.816,2.255, 8.862,4.279, 13.641,7.229
	c 2.353,1.499, 4.657,3.243, 6.632,5.498c 1.975,2.255, 3.572,5.022, 4.462,8.302l0.00,0.024 c 0.378,1.438, 0.561,2.853, 0.561,4.267
	c0.00,2.694-0.658,5.23-1.755,7.509C 415.586,101.717, 412.965,104.558, 409.905,106.569z M 197.474,155.636c 0.049,0.00, 0.122-0.012, 0.183-0.049
	c 3.864-1.414, 7.851-2.109, 11.788-2.109c 9.826,0.00, 19.383,4.023, 26.624,10.594c 7.217,6.571, 12.166,15.884, 12.166,26.502
	c0.00,0.268,0.00,0.561-0.012,0.878c 0.024,0.475, 0.037,1.00, 0.037,1.524c0.00,10.533-4.876,19.883-12.032,26.49
	c-7.18,6.619-16.713,10.667-26.587,10.667c-2.633,0.00-5.327-0.305-7.948-0.926c-0.037,0.00-0.061-0.012-0.11-0.012c0.00,0.00-0.024,0.00-0.037,0.00
	c-13.056-2.743-24.527-12.434-28.757-25.771l0.00,0.00l0.00-0.012 c0.00-0.024-0.012-0.061-0.012-0.061c-1.207-3.645-1.78-7.40-1.78-11.142
	c0.00-8.168, 2.694-16.128, 7.351-22.686c 4.608-6.424, 11.154-11.496, 18.993-13.861C 197.40,155.672, 197.425,155.672, 197.474,155.636z M 607.134,250.929
	l0.00-0.049 c 0.098-1.329, 0.122-2.645, 0.122-3.974c0.00-14.738-4.73-28.928-12.617-40.96c-7.363-11.264-17.53-20.687-29.233-27.075
	c 0.768-5.864, 1.195-11.80, 1.195-17.688c-0.012-31.744-10.947-62.976-30.025-87.991l0.00-0.024 l-0.049,0.00 c-35.255-46.897-89.381-74.545-144.043-88.503
	l-0.024,0.00 l-0.024-0.024c-29.172-7.083-59.209-10.703-89.271-10.703c-44.788,0.00-89.563,8.082-131.316,24.832l-0.012,0.037l-0.037,0.00 
	c-43.301,17.847-84.565,46.214-109.873,87.784c-13.617,22.187-21.077,48.201-21.077,74.362c0.00,5.90, 0.39,11.837, 1.182,17.688
	c-11.398,6.412-21.272,15.518-28.599,26.38C 5.583,216.71, 0.634,230.376,0.00,244.834l0.00,0.049 l0.00,0.049 l0.00,0.122 
	c 0.012,20.248, 8.802,39.412, 22.467,53.553c 13.666,14.129, 32.329,23.369, 52.346,23.369c 0.268,0.00, 0.549,0.00, 0.829,0.00
	c 2.097,0.146, 4.218,0.232, 6.339,0.232c 10.057,0.00, 20.139-1.634, 29.708-5.303l 0.049-0.037l 0.049-0.012c 8.168-3.438, 16.286-7.595, 23.528-13.336
	c 2.341,1.231, 4.901,2.609, 7.778,3.706c 43.861,25.966, 94.83,35.986, 144.518,38.875c 0.439,24.613, 3.45,50.371, 15.458,72.923
	c 9.996,18.737, 27.343,33.317, 48.006,38.363l 0.098,0.037l 0.098,0.012c 7.875,1.524, 15.811,2.231, 23.686,2.231c 20.992,0.00, 41.728-4.974, 61.147-12.727
	c 8.594,12.971, 20.858,23.089, 35.255,28.757l 0.134,0.073l 0.134,0.049C 480.049,478.464, 488.972,480.00, 497.932,480.00c 9.435,0.00, 18.968-1.731, 27.892-5.717
	L 525.824,474.319 c0.00-0.037, 0.024-0.037, 0.024-0.037c 0.061-0.012, 0.122-0.061, 0.171-0.061c 12.80-4.925, 23.625-14.031, 31.281-25.344
	c 7.692-11.362, 12.203-24.978, 12.203-38.973c0.00-2.572-0.146-5.157-0.439-7.753l-0.037-0.049c0.00-0.037,0.00-0.085-0.012-0.134
	c-1.499-18.078-10.667-33.95-23.625-45.263c-13.032-11.362-29.94-18.225-47.275-18.225c-2.792,0.00-5.595,0.158-8.387,0.524
	c-17.213,1.317-33.243,9.63-45.019,22.016c-11.825,12.361-19.444,28.879-19.444,46.714c0.00,0.866, 0.085,1.743, 0.11,2.597
	c-16.14,7.192-33.28,13.154-50.334,13.141c-2.45,0.00-4.925-0.134-7.387-0.378l-0.024,0.00 c-12.751-1.231-24.625-9.265-30.366-20.834l0.00-0.012 l0.00-0.037 
	c-8.716-16.994-10.447-36.84-10.715-56.564c 48.908-3.194, 98.097-14.933, 141.239-39.729l 0.073,0.00 l 0.622-0.366c 0.805-0.488, 2.328-1.317, 3.706-2.048
	c 2.962,2.414, 6.107,4.876, 9.679,7.01c 13.068,8.716, 28.574,13.044, 44.069,13.044c 6.875,0.00, 13.775-0.878, 20.456-2.584l 0.024,0.00 l 0.28-0.073
	c 0.098-0.012, 0.171-0.049, 0.244-0.049l0.00-0.012 c 15.799-4.011, 30.086-13.093, 40.838-25.307c 10.74-12.251, 17.981-27.746, 19.383-44.556L 607.159,250.929 z
	 M 463.092,410.978c0.00-0.658, 0.012-1.341, 0.073-2.036l0.00-0.037 l0.00-0.073 c 0.329-8.497, 4.328-16.408, 10.423-22.248
	c 6.132-5.839, 14.263-9.46, 22.516-9.496l 0.11,0.00 l 0.11,0.00 c 0.585-0.049, 1.207-0.049, 1.78-0.049c 8.338-0.012, 16.591,3.572, 22.808,9.399
	c 6.217,5.851, 10.313,13.80, 10.642,22.37l 0.012,0.037L 531.566,408.917 c 0.061,0.646, 0.085,1.28, 0.085,1.938c0.00,8.826-4.133,17.225-10.594,23.454
	c-6.424,6.217-15.08,10.082-23.625,10.057c-2.767,0.00-5.486-0.378-8.168-1.207l-0.073-0.012l-0.085-0.037
	c-7.034-1.829-13.629-6.168-18.371-11.934C 465.969,425.448, 463.092,418.353, 463.092,410.978z M 102.095,279.893c-6.534,3.048-13.30,5.218-19.98,5.181
	c-1.122,0.00-2.255-0.061-3.365-0.195L 78.58,284.879 l-0.158-0.012c-9.594-0.256-19.285-4.45-26.539-11.154c-7.278-6.68-12.081-15.701-12.446-25.649
	l0.00-0.085 L 39.412,247.893c-0.061-0.805-0.085-1.609-0.085-2.365c0.00-6.132, 1.877-12.069, 5.071-17.469c 2.353-4.011, 5.449-7.68, 8.96-10.874
	C 64.573,241.749, 82.091,262.583, 102.095,279.893z M 528.128,159.817c0.00,21.882-7.887,43.861-20.675,61.562c-25.478,35.462-65.024,58.587-106.142,71.485
	l-0.293,0.098c-7.887,2.426-15.872,4.571-23.906,6.40c-24.04,5.474-48.677,8.192-73.301,8.192c-33.061,0.00-66.121-4.888-97.78-14.653
	c-41.118-13.044-80.774-36.023-106.216-71.595l0.00-0.024 C 86.918,203.52, 79.372,181.455, 79.372,159.488c0.00-8.082, 1.012-16.152, 3.145-24.04l 0.024-0.012
	c 4.62-17.652, 13.678-33.414, 25.393-47.153c 11.715-13.751, 26.075-25.49, 41.192-35.06c 3.34-2.072, 6.705-4.047, 10.142-5.986
	c 43.898-24.503, 94.452-35.243, 144.64-35.243c 8.485,0.00, 17.018,0.293, 25.454,0.902c 50.542,4.181, 101.303,19.09, 142.324,49.566l 0.012,0.037
	c 13.056,9.655, 25.161,21.346, 34.731,34.633c 9.606,13.288, 16.64,28.172, 19.773,44.312l0.00,0.049 l0.00,0.00C 527.506,147.554, 528.128,153.673, 528.128,159.817z
	 M 568.015,246.894c-0.012,5.315-1.231,10.606-3.877,15.531l-0.073,0.061l-0.024,0.085c-3.572,7.326-9.143,12.861-15.884,16.628
	c-6.741,3.791-14.616,5.73-22.528,5.73c-7.144,0.00-14.263-1.597-20.578-4.779c 20.066-17.432, 37.669-38.363, 49.054-63.013
	c 3.669,3.182, 6.79,7.083, 9.118,11.422C 566.296,234.24, 568.015,240.603, 568.015,246.894z" horiz-adv-x="621.7142857142857"  />
<glyph unicode="&#x48;" d="M 0.08,214.473c 62.143,0.00, 120.561-24.275, 164.462-68.427c 43.982-44.152, 68.206-102.962, 68.206-165.567l 95.754,0.00 
	c0.00,181.84-147.336,329.768-328.423,329.768L 0.08,214.473 z M 0.221,384.236c 221.485,0.00, 401.679-181.178, 401.679-403.878l 95.764,0.00 
	C 497.664,255.885, 274.512,480.00, 0.221,480.00L 0.221,384.236 z M 132.658,47.26c0.00-36.623-29.706-66.329-66.329-66.329S0.00,10.627,0.00,47.26
	c0.00,36.643, 29.696,66.329, 66.319,66.329S 132.658,83.903, 132.658,47.26z"  />
<glyph unicode="&#x49;" d="M 175.626,231.188c0.00-1.697-0.392-3.303-0.482-5.01l 178.296-89.128
	c 15.27,12.931, 34.806,20.992, 56.37,20.992c 48.499,0.00, 87.823-39.314, 87.823-87.813c0.00-48.54-39.324-87.863-87.823-87.863
	c-48.55,0.00-87.813,39.324-87.813,87.863c0.00,1.757, 0.392,3.303, 0.492,5.01l-178.307,89.118c-15.31-12.87-34.796-20.942-56.37-20.942
	C 39.314,143.415,0.00,182.689,0.00,231.188c0.00,48.54, 39.314,87.863, 87.813,87.863c 21.574,0.00, 41.06-8.122, 56.37-20.992l 178.307,89.128
	c-0.10,1.697-0.492,3.303-0.492,5.05C 321.998,440.686, 361.261,480.00, 409.811,480.00c 48.499,0.00, 87.823-39.314, 87.823-87.763
	c0.00-48.55-39.324-87.863-87.823-87.863c-21.624,0.00-41.111,8.112-56.37,21.042l-178.296-89.168C 175.245,234.541, 175.626,232.935, 175.626,231.188z"  />
<glyph unicode="&#x4a;" d="M 478.981,176.806c 3.554,16.304, 5.421,33.149, 5.421,50.477c0.00,129.887-105.291,235.199-235.209,235.199c-13.704,0.00-27.136-1.195-40.227-3.433
	C 187.964,472.30, 163.077,480.00, 136.413,480.00C 61.069,480.00,0.00,418.921,0.00,343.567c0.00-25.168, 6.857-48.73, 18.743-68.989c-3.132-15.27-4.759-31.101-4.759-47.295
	c0.00-129.917, 105.291-235.219, 235.209-235.219c 14.728,0.00, 29.104,1.365, 43.058,3.945c 19.225-10.31, 41.171-16.173, 64.492-16.173
	c 75.344,0.00, 136.403,61.059, 136.403,136.403C 493.146,137.994, 488.036,158.554, 478.981,176.806z M 369.835,114.874
	c-10.862-15.39-26.955-27.588-47.797-36.252c-20.621-8.573-45.347-12.92-73.487-12.92c-33.782,0.00-62.113,5.943-84.219,17.669
	c-15.812,8.533-28.833,20.078-38.731,34.374c-9.979,14.396-15.039,28.682-15.039,42.496c0.00,8.594, 3.293,16.083, 9.798,22.187
	c 6.445,6.074, 14.697,9.136, 24.556,9.136c 8.082,0.00, 15.059-2.409, 20.721-7.178c 5.401-4.608, 10.039-11.415, 13.784-20.179
	c 4.176-9.567, 8.704-17.619, 13.503-23.933c 4.628-6.124, 11.264-11.264, 19.737-15.27c 8.523-4.036, 20.028-6.094, 34.153-6.094
	c 19.446,0.00, 35.398,4.156, 47.385,12.348c 11.726,7.981, 17.398,17.589, 17.398,29.345c0.00,9.286-2.972,16.565-9.065,22.307
	c-6.425,6.003-14.858,10.632-25.108,13.854c-10.682,3.323-25.208,6.927-43.149,10.702c-24.425,5.21-45.156,11.425-61.651,18.422
	c-16.886,7.178-30.469,17.137-40.408,29.565c-10.089,12.659-15.219,28.481-15.219,47.144c0.00,17.769, 5.371,33.802, 15.972,47.586
	c 10.511,13.724, 25.881,24.405, 45.658,31.694c 19.516,7.218, 42.737,10.883, 69.02,10.883c 21.002,0.00, 39.464-2.45, 54.884-7.218
	c 15.511-4.819, 28.572-11.344, 38.842-19.366c 10.34-8.092, 18.051-16.715, 22.879-25.71c 4.859-9.055, 7.339-18.091, 7.339-26.815
	c0.00-8.413-3.243-16.053-9.648-22.719c-6.455-6.686-14.577-10.079-24.154-10.079c-8.704,0.00-15.531,2.138-20.259,6.295
	c-4.397,3.915-8.975,9.989-14.035,18.713c-5.863,11.123-12.971,19.918-21.112,26.112c-7.911,6.034-21.123,9.055-39.283,9.055
	c-16.846,0.00-30.569-3.373-40.749-10.069c-9.818-6.415-14.587-13.794-14.587-22.538c0.00-5.371, 1.546-9.838, 4.718-13.683
	c 3.333-4.116, 8.061-7.66, 14.015-10.662c 6.174-3.112, 12.559-5.572, 18.934-7.329c 6.525-1.827, 17.498-4.508, 32.537-7.981
	c 19.034-4.096, 36.543-8.664, 52.003-13.623c 15.681-5.02, 29.194-11.174, 40.247-18.382c 11.264-7.329, 20.189-16.725, 26.514-27.989
	c 6.355-11.294, 9.567-25.229, 9.567-41.432C 386.299,147.993, 380.747,130.314, 369.835,114.874z"  />
<glyph unicode="&#x4b;" d="M 299.736,74.576c 1.627,48.538-39.344,90.226-91.295,92.934l-19.547,1.024c-18.876,0.956-34.85,16.623-34.85,34.179
	c0.00,16.953, 15.735,31.596, 34.111,31.596l 128.466,0.00 c 18.375,0.00, 32.552-15.758, 32.552-34.111l0.00-118.249 c0.00-52.361, 42.598-94.913, 94.948-94.913l 15.519,0.00 
	c 52.361,0.00, 94.948,42.553, 94.948,94.913L 554.587,479.329 C 552.266,479.442, 550.081,480.00, 547.738,480.00l-54.773,0.00 l0.00-398.04 c0.00-18.375-14.939-33.269-33.326-33.269l-15.519,0.00 
	c-18.364,0.00-33.326,14.894-33.326,33.269L 410.795,200.198 c0.00,52.361-42.576,94.959-94.948,94.959L 187.392,295.157 c-52.361,0.00-94.97-41.483-94.97-92.444
	c0.00-50.085, 41.847-93.07, 93.23-95.71l 19.558-1.047c 18.352-0.956, 33.439-14.359, 32.95-29.332c-0.501-15.178-16.68-27.932-35.282-27.932L0.00,48.691 l0.00-61.645 
	l 202.877,0.00 C 254.669-12.954, 298.109,26.311, 299.736,74.576z" horiz-adv-x="568.8888888888889"  />
<glyph unicode="&#x4c;" d="M 471.251,413.818C 421.777,456.504, 354.015,480.00, 280.498,480.00C 207.015,480.00, 137.784,456.782, 85.638,414.687C 31.221,370.766,0.00,308.87,0.00,244.914
	c0.00-61.217, 27.459-116.191, 72.96-157.162l-11.598-106.14l 93.974,55.43c 37.487-15.082, 79.905-23.519, 125.162-23.519
	c 153.622,0.00, 269.446,99.718, 269.446,232.014C 549.944,310.283, 521.984,370.054, 471.251,413.818 M 280.498,124.004c-48.874,0.00-93.651,14.002-126.074,39.457
	c-28.349,22.194-43.943,51.178-43.943,81.453c0.00,68.697, 76.288,124.605, 170.017,124.605c 90.635,0.00, 158.954-53.293, 158.954-123.993
	C 439.452,175.093, 372.625,124.004, 280.498,124.004" horiz-adv-x="567.6521739130435"  />
<glyph unicode="&#x4d;" d="M 180.173,480.00l0.00-116.541 l 116.521,0.00 l0.00-89.979 L 180.173,273.48 l0.00-129.219 c0.00-29.235-0.369-46.10, 2.724-54.385c 3.072-8.243, 10.793-16.804, 19.20-21.74
	c 11.172-6.697, 23.88-10.035, 38.236-10.035c 25.508,0.00, 50.903,8.284, 76.145,24.863l0.00-79.462 c-21.514-10.138-41.032-17.285-58.491-21.34
	c-17.469-4.055-36.342-6.144-56.627-6.144c-23.04,0.00-36.639,2.918-54.333,8.704c-17.705,5.857-32.809,14.182-45.292,24.883
	c-12.554,10.783-21.176,22.241-26.01,34.355c-4.844,12.145-7.26,29.737-7.26,52.777l0.00,176.742 L0.00,273.48 l0.00,71.383 c 19.794,6.42, 42.742,15.636, 56.832,27.638
	c 14.152,12.042, 25.477,26.44, 33.997,43.284C 99.40,432.579, 105.288,454.021, 108.503,480.00L 180.173,480.00 z" horiz-adv-x="327.68"  />
<glyph unicode="&#x4e;" d="M 615.187,420.82c-22.628-10.053-46.954-16.834-72.492-19.868c 26.062,15.61, 46.068,40.336, 55.483,69.832c-24.389-14.473-51.387-24.976-80.147-30.645
	C 495.029,464.665, 462.224,480.00, 425.922,480.00C 356.227,480.00, 299.707,423.493, 299.707,353.786c0.00-9.89, 1.111-19.518, 3.272-28.759C 198.082,330.284, 105.085,380.535, 42.833,456.898
	C 31.969,438.266, 25.75,416.587, 25.75,393.447c0.00-43.782, 22.278-82.42, 56.145-105.06c-20.68,0.662-40.148,6.331-57.169,15.797
	c-0.012-0.524-0.012-1.049-0.012-1.598c0.00-61.14, 43.508-112.153, 101.251-123.767c-10.59-2.872-21.741-4.421-33.255-4.421
	c-8.142,0.00-16.047,0.787-23.752,2.273c 16.072-50.151, 62.676-86.64, 117.897-87.664c-43.195-33.854-97.605-54.022-156.747-54.022
	c-10.178,0.00-20.23,0.599-30.108,1.761c 55.87-35.815, 122.206-56.707, 193.474-56.707c 232.148,0.00, 359.099,192.312, 359.099,359.112
	c0.00,5.47-0.125,10.927-0.362,16.334C 576.874,373.279, 598.291,395.508, 615.187,420.82z" horiz-adv-x="636.8780487804878"  />
<glyph unicode="&#x4f;" d="M 299.786,109.056l-95.437,0.00 c-67.901,0.00-78.725,30.044-78.725,57.897c0.00,13.22, 0.829,35.021, 1.638,61.716l 159.468,0.00 
	c 23.849,0.00, 69.386,9.779, 69.386,53.443c0.00,43.622-21.023,72.223-49.183,72.223L 129.239,354.335 C 129.065,417.28, 124.959,480.00, 63.478,480.00
	C 38.052,480.00, 17.418,469.555, 8.724,443.617c-11.418-34.079-8.397-73.984-8.253-109.455c 0.041-6.738, 0.072-13.517, 0.092-20.275
	c 0.082-23.245, 0.553-46.623, 0.655-69.98c 0.061-25.139, 0.092-50.278, 0.092-75.397c0.00-140.759, 127.928-180.644, 152.474-180.644
	c 24.545,0.00, 120.668-2.284, 138.025-2.284c 17.367,0.00, 67.205,4.598, 67.205,54.999S 323.635,109.056, 299.786,109.056z" horiz-adv-x="368.64"  />
<glyph unicode="&#x50;" d="M0.00,343.273l 23.389-30.673c0.00,0.00, 48.244,38.016, 64.326,19.014c 16.081-19.014, 77.452-248.529, 97.943-290.874
	c 17.885-37.143, 67.223-86.26, 121.321-51.177c 54.074,35.072, 233.868,188.567, 266.042,369.815c 32.163,181.225-216.367,143.279-242.665-14.615
	c 65.769,39.505, 100.899-16.058, 67.247-78.941c-33.617-62.836-64.314-103.808-80.396-103.808c-16.047,0.00-28.404,42.042-46.79,115.537
	c-19.014,75.974-18.897,212.841-97.932,197.329C 97.943,460.241,0.00,343.273,0.00,343.273z" horiz-adv-x="593.4545454545455"  />
<glyph unicode="&#x51;" d="M0.00,228.639c0.00-138.836, 112.525-251.361, 251.361-251.361c 138.804,0.00, 251.361,112.525, 251.361,251.361
	C 502.721,367.444, 390.165,480.00, 251.361,480.00C 112.525,480.00,0.00,367.444,0.00,228.639z M 19.372,228.639c0.00,33.635, 7.241,65.557, 20.093,94.417l 110.665-303.188
	C 72.756,57.433, 19.372,136.824, 19.372,228.639z M 251.361-3.338c-22.768,0.00-44.763,3.312-65.546,9.404l 69.622,202.24l 71.304-195.344
	c 0.46-1.139, 1.034-2.163, 1.64-3.156C 304.295,1.311, 278.361-3.338, 251.361-3.338z M 438.857,232.986c 13.228,33.092, 17.638,59.559, 17.638,83.08
	c0.00,8.547-0.564,16.478-1.588,23.876c 18.098-33.071, 28.411-70.969, 28.411-111.313c0.00-85.588-46.373-160.308-115.304-200.495L 438.857,232.986z
	 M 388.827,304.332c 8.808-15.444, 19.143-35.307, 19.143-63.99c0.00-19.874-5.914-44.847-17.659-75.003l-23.144-77.281l-83.853,249.334
	c 14.002,0.763, 26.551,2.205, 26.551,2.205c 12.497,1.484, 11.024,19.822-1.452,19.143c0.00,0.00-37.595-2.968-61.848-2.968
	c-22.81,0.00-61.085,2.968-61.085,2.968c-12.518,0.679-13.96-18.411-1.494-19.143c0.00,0.00, 11.86-1.452, 24.367-2.205l 36.112-99.035l-50.751-152.221
	l-84.501,251.256c 13.991,0.763, 26.572,2.205, 26.572,2.205c 12.507,1.484, 10.982,19.822-1.484,19.143c0.00,0.00-37.564-2.968-61.848-2.968
	c-4.347,0.00-9.456,0.115-14.911,0.272C 99.035,419.03, 170.329,460.628, 251.361,460.628c 60.406,0.00, 115.378-23.103, 156.641-60.938
	c-0.993,0.073-1.975,0.199-2.957,0.199c-22.862,0.00-38.975-19.843-38.975-41.148C 366.059,339.597, 377.083,323.432, 388.827,304.332z" horiz-adv-x="511.99999999999994"  />
<glyph unicode="&#x52;" d="M 293.948-20.445L 182.031,175.752L 355.73,480.00L 472.646,480.00 L 298.938,175.752l 111.927-196.196L 293.948-20.445 z
	 M 110.221,130.866l 86.839,142.968L 131.935,388.553L 21.715,388.553 L 86.839,273.835L0.00,130.866L 110.221,130.866 z" horiz-adv-x="481.88235294117646"  />
<glyph unicode="&#x53;" d="M 518.656,355.93c-15.757-5.517-159.91-150.746-169.408-186.394
	c-2.099-12.301, 0.218-131.674, 2.304-149.568c 9.498-2.739, 78.08-0.358, 90.662-3.085l-1.498-36.902c-12.339,1.254-99.482,0.947-149.197,0.947
	c-25.267,0.00-106.483-3.622-131.443-2.675l 4.723,35.11c 13.683,1.318, 70.323-3.277, 82.752,13.914c 6.17,8.55, 4.237,121.984, 2.138,141.158
	C 244.442,188.966, 118.106,394.611, 85.082,428.301L0.00,428.301 L0.00,480.00 l 286.95,0.00 l0.00-3.558 c 0.256,0.00, 0.73-0.051, 0.973-0.128L 286.95,467.584l0.00-39.27 l-86.528,0.00 
	c 38.566-73.267, 93.862-161.728, 117.44-204.237l 115.571,136.077l-68.685,0.00 L 355.072,411.789L 606.72,411.789 l-1.856-3.686c 0.205,0.00, 0.614-0.051, 0.883-0.051
	L 587.776,374.17c-0.154,0.00-0.422-0.051-0.576-0.115L 579.968,360.141l-46.426,0.00 C 527.526,358.426, 522.227,356.89, 518.656,355.93z M 600.768,32.166
	l-22.195,1.408l-24.806,3.93l 0.205-55.206l 19.558-2.176l 21.069-2.022L 600.768,32.166z M 643.904,296.038c-7.501,0.333-75.674,8.73-84.531,11.008
	l 1.05-233.229l 38.566-4.045L 643.904,296.038z" horiz-adv-x="665.6"  />
<glyph unicode="&#x54;" d="M 62.267,457.314c 25.127,19.751, 73.433,25.413, 93.312,21.553c 19.899-3.83, 30.287-14.956, 30.415-28.514
	l 1.142-172.761c 0.089-13.568-6.951-26.043-15.665-27.707c-8.763-1.644-21.642,6.42-28.741,17.959L 52.096,415.98
	C 45.066,427.54, 30.887,432.63, 62.267,457.314z M 32.167,128.798l 91.254,32.295c 12.721,4.51, 24.113,17.054, 25.383,27.953
	c 1.231,10.90-8.005,23.847-20.549,28.81l-96.394,38.223c-12.554,4.962-27.028-6.794-30.848-26.053c0.00,0.00-2.294-67.023,0.00-80.906
	C 3.348,135.257, 19.456,124.278, 32.167,128.798z M 191.36,112.66c 0.246,13.617-7.001,25.344-16.148,26.191c-9.157,0.847-23.68-6.961-32.354-17.329
	l-63.655-76.327c-8.674-10.378-4.372-34.737, 8.271-39.345l 66.57-23.129c 12.672-4.608, 34.983,9.029, 35.249,22.597L 191.36,112.66z M 349.588,130.432
	l-79.823,22.961c-12.938,3.712-27.638,3.367-32.601-0.847c-4.992-4.175-3.751-17.329, 2.767-29.214l 50.373-92.19
	c 6.508-11.865, 32.571-9.826, 39.729,1.694c0.00,0.00, 30.375,44.79, 35.948,61.578C 371.574,111.252, 362.516,126.72, 349.588,130.432z M 369.024,260.076
	c-3.594,11.668-28.554,46.05-42.063,57.767c-13.509,11.746-28.948,10.279-37.662-0.039l-51.446-61.282c-8.714-10.309-11.038-26.663-5.228-36.283
	c 5.809-9.62, 21.307-15.065, 34.442-12.111l 88.98,16.502C 372.106,228.48, 372.687,248.409, 369.024,260.076z" horiz-adv-x="384"  />
<glyph unicode="&#x55;" d="M 418.879,241.241L 93.612,241.241 C 41.911,241.241,0.00,199.288,0.00,147.587l0.00-75.243 c0.00-51.691, 41.911-93.623, 93.612-93.623l 325.266,0.00 
	c 51.691,0.00, 93.612,41.932, 93.612,93.623l0.00,75.243 C 512.491,199.288, 470.57,241.241, 418.879,241.241z M 161.949,182.653l-30.239,0.00 l0.00-150.246 L 102.504,32.408 L 102.504,182.653 L 72.276,182.653 
	L 72.276,208.222 l 89.673,0.00 L 161.949,182.653 z M 247.38,32.408l-25.913,0.00 l0.00,14.20 c-4.817-5.245-9.78-9.268-14.973-11.975c-5.172-2.821-10.188-4.138-15.057-4.138
	c-6.008,0.00-10.48,1.923-13.542,5.799c-3.009,3.877-4.556,9.634-4.556,17.387L 173.338,162.121 l 25.913,0.00 l0.00-99.506 c0.00-3.072, 0.564-5.287, 1.599-6.646
	c 1.118-1.421, 2.905-2.069, 5.339-2.069c 1.87,0.00, 4.305,0.899, 7.22,2.717c 2.936,1.839, 5.601,4.148, 8.046,6.98l0.00,98.534 l 25.913,0.00 L 247.369,32.408 z
	 M 341.452,59.188c0.00-9.164-2.027-16.206-6.102-21.117c-4.033-4.901-9.947-7.325-17.617-7.325c-5.099,0.00-9.624,0.92-13.573,2.821
	c-3.96,1.881-7.69,4.786-11.086,8.798l0.00-9.937 L 266.867,32.428 L 266.867,208.222 l 26.216,0.00 l0.00-56.633 c 3.511,3.929, 7.231,6.959, 11.107,8.997
	c 3.971,2.079, 7.952,3.093, 11.975,3.093c 8.202,0.00, 14.461-2.738, 18.787-8.265c 4.347-5.528, 6.499-13.625, 6.499-24.252L 341.452,59.188 z M 431.355,94.14
	l-49.591,0.00 l0.00-24.44 c0.00-6.823, 0.825-11.557, 2.529-14.211c 1.724-2.654, 4.65-3.939, 8.788-3.939c 4.315,0.00, 7.293,1.118, 9.017,3.344
	c 1.682,2.267, 2.581,7.168, 2.581,14.806l0.00,5.904 l 26.676,0.00 l0.00-6.656 c0.00-13.302-3.229-23.312-9.791-30.083c-6.447-6.687-16.165-10.021-29.08-10.021
	c-11.619,0.00-20.783,3.553-27.439,10.679c-6.646,7.074-10.021,16.906-10.021,29.414l0.00,58.264 c0.00,11.201, 3.688,20.428, 11.034,27.512
	c 7.335,7.074, 16.76,10.595, 28.379,10.595c 11.87,0.00, 20.992-3.271, 27.366-9.822c 6.363-6.572, 9.55-15.987, 9.55-28.275L 431.355,94.14 zM 393.331,142.644c-4.138,0.00-7.084-1.17-8.882-3.584c-1.829-2.288-2.685-6.186-2.685-11.63l0.00-13.103 l 22.915,0.00 l0.00,13.103 
	c0.00,5.444-0.93,9.352-2.738,11.63C 400.196,141.474, 397.281,142.644, 393.331,142.644zM 303.929,143.083c-1.849,0.00-3.699-0.397-5.496-1.243c-1.808-0.836-3.584-2.205-5.35-3.971l0.00-80.802 
	c 2.09-2.10, 4.148-3.699, 6.144-4.618c 2.006-0.888, 4.065-1.40, 6.269-1.40c 3.187,0.00, 5.507,0.92, 7.001,2.779
	c 1.473,1.839, 2.236,4.786, 2.236,8.934l0.00,66.988 c0.00,4.399-0.888,7.701-2.717,9.968C 310.115,141.955, 307.419,143.083, 303.929,143.083zM 136.202,286.297L 169.064,286.297L 169.064,366.649L 207.308,480.00L 173.923,480.00L 153.579,402.573L 151.51,402.573L 130.163,480.00L 97.071,480.00L 136.202,363.034 
	zM 251.831,282.692c 13.27,0.00, 23.677,3.48, 31.263,10.439c 7.534,6.99, 11.306,16.53, 11.306,28.756L 294.40,395.698 c0.00,10.877-3.856,19.832-11.536,26.739
	c-7.732,6.886-17.638,10.355-29.727,10.355c-13.26,0.00-23.834-3.281-31.681-9.832c-7.847-6.552-11.776-15.339-11.776-26.446l0.00-74.062 
	c0.00-12.152, 3.835-21.765, 11.483-28.975C 228.822,286.297, 239.062,282.692, 251.831,282.692z M 239.72,397.599c0.00,3.103, 1.108,5.611, 3.302,7.576
	c 2.267,1.923, 5.141,2.853, 8.704,2.853c 3.866,0.00, 6.98-0.93, 9.362-2.853c 2.372-1.964, 3.563-4.472, 3.563-7.576l0.00-77.855 
	c0.00-3.814-1.17-6.844-3.511-9.038c-2.33-2.184-5.465-3.271-9.415-3.271c-3.856,0.00-6.834,1.045-8.913,3.229
	c-2.058,2.152-3.103,5.162-3.103,9.08L 239.71,397.599 zM 338.463,284.217c 5.475,0.00, 11.107,1.557, 16.917,4.566c 5.862,3.051, 11.473,7.513, 16.802,13.333l0.00-15.82 l 29.194,0.00 L 401.377,429.176 l-29.194,0.00 l0.00-108.46 
	c-2.717-3.103-5.726-5.653-8.976-7.68c-3.302-2.006-6.019-3.009-8.161-3.009c-2.738,0.00-4.744,0.752-5.925,2.299
	c-1.212,1.505-1.891,3.939-1.891,7.304L 347.23,429.176 l-29.142,0.00 l0.00-119.421 c0.00-8.516, 1.714-14.879, 5.11-19.101
	C 326.635,286.38, 331.682,284.217, 338.463,284.217z" horiz-adv-x="522.4489795918367"  />
<glyph unicode="&#x56;" d="M 6.064,85.308c 5.12,0.00, 10.24,0.00, 15.35,0.00c 38.139,0.00, 70.646-1.044, 105.874-19.165
	c 27.056-13.914, 49.433-36.201, 75.806-51.712c 24.988-14.687, 53.529-30.118, 82.803-33.581c 58.93-6.967, 82.613,64.281, 72.804,110.492
	c-26.243-21.153-62.866-20.621-96.427-11.425c-31.583,10.541-81.84,43.269-81.84,43.269l0.00-0.02 c-22.538,14.085-49.011,25.731-75.585,24.516
	c0.00,12.007, 0.341,12.469, 7.64,20.942c 10.039,11.625, 20.078,23.271, 30.128,34.906c 31.583,36.623, 63.177,73.236, 94.76,109.849
	c 26.875,31.162, 53.75,62.313, 80.635,93.485c 2.57,2.972, 12.047,10.642, 12.529,14.748c 1.626,14.155, 3.263,28.301, 4.899,42.456
	c 1.144,9.808-9.025,7.459-9.025,7.459L 326.375,471.557c-43.58-8.865-88.385-13.493-132.809-11.455c-24.727,1.124-50.738,3.484-73.949,12.72
	c-0.833,0.341-5.742,2.851-10.35,5.371c-6.696,3.464-11.164,1.225-13.553-0.783C 93.837,475.071, 91.849,472.822, 90.082,470.423
	C 78.406,454.48, 67.544,435.737, 65.556,415.729c-0.452-4.457-1.004-13.874, 1.456-19.546l-0.02,0.00c0.00,0.00, 0.261-0.683, 1.014-1.787
	C 68.126,394.215, 68.227,394.024, 68.357,393.864c 5.572-7.68, 31.172-30.80, 131.182-10.752C 134.465,306.291, 69.371,229.481, 4.297,152.671
	c-0.01-0.01-0.01-0.01-0.01-0.01c-3.614-4.297-4.216-11.284-4.216-11.284c0.00-13.623,0.00-27.246,0.00-40.87c0.00-0.492-0.05-3.514-0.07-6.726
	C 1.275,86.915, 4.317,85.539, 6.064,85.308z" horiz-adv-x="371.45098039215685"  />
<glyph unicode="&#x57;" d="M 20.44,121.951c 13.965,0.00, 36.894,12.238, 51.351,25.51c 76.258-147.416, 97.682-171.379, 150.016-171.379
	c 56.822,0.00, 114.136,43.349, 114.136,82.613c0.00,13.272-6.977,24.998-13.944,28.572c-23.933-13.252-45.367-20.41-64.813-20.41
	c-24.917,0.00-38.872,11.234-118.121,130.59c 60.296,53.047, 95.704,88.245, 141.543,155.056c 39.394,26.524, 54.824,49.985, 54.824,71.409
	c0.00,18.362-15.43,42.837-35.358,42.837c-9.487,0.00-16.956-9.186-26.925-24.998C 199.881,470.312, 165.486,480.00, 127.619,480.00C 92.24,480.00, 63.327,448.397, 63.327,411.653
	c0.00-20.922, 8.473-32.627, 21.424-36.713c 16.936,10.19, 30.901,14.266, 39.866,14.266c 23.442,0.00, 59.824-10.712, 104.679-24.486
	c-22.418-33.149-80.735-94.369-122.609-128.03c-15.952,13.784-25.921,18.874-40.368,18.874C 19.948,255.573,0.00,200.498,0.00,166.305
	C0.00,131.639, 7.981,121.951, 20.44,121.951z" horiz-adv-x="341.3333333333333"  />
<glyph unicode="&#x58;" d="M 0.00,201.795 C 0.00,178.596 2.17,157.605 6.511,138.828 C 10.85,120.051 16.859,103.736 24.537,89.882 C 32.215,76.028 41.979,63.843 53.83,53.328 C 65.68,42.812 78.533,34.216 92.386,27.54 C 106.239,20.865 122.054,15.441 139.83,11.267 C 157.606,7.094 175.758,4.173 194.285,2.503 C 212.812,0.834 233.175,0.00 255.374,0.00 C 277.74,0.00 298.188,0.834 316.714,2.503 C 335.241,4.173 353.435,7.095 371.294,11.267 C 389.153,15.439 405.05,20.863 418.988,27.54 C 432.926,34.217 445.861,42.812 457.796,53.328 C 469.731,63.843 479.579,76.03 487.339,89.882 C 495.099,103.734 501.15,120.05 505.49,138.828 C 509.83,157.606 512.00,178.596 512.00,201.795 C 512.00,243.189 498.146,278.992 470.441,309.203 C 471.943,313.209 473.32,317.757 474.572,322.848 C 475.824,327.939 476.992,335.199 478.077,344.63 C 479.162,354.061 478.745,364.951 476.825,377.303 C 474.906,389.655 471.359,402.256 466.183,415.109 L 462.428,415.86 C 459.757,416.36 455.375,416.235 449.283,415.484 C 443.191,414.733 436.097,413.231 428.002,410.977 C 419.907,408.724 409.475,404.384 396.706,397.958 C 383.937,391.532 370.459,383.479 356.271,373.798 C 331.903,380.474 298.437,383.813 255.875,383.813 C 213.479,383.813 180.097,380.474 155.728,373.798 C 141.54,383.479 127.978,391.532 115.043,397.958 C 102.108,404.384 91.801,408.724 84.123,410.977 C 76.446,413.231 69.268,414.691 62.592,415.359 C 55.915,416.027 51.70,416.235 49.948,415.985 C 48.196,415.735 46.818,415.442 45.817,415.109 C 40.643,402.256 37.096,389.656 35.177,377.303 C 33.258,364.951 32.84,354.06 33.925,344.63 C 35.01,335.20 36.179,327.939 37.43,322.848 C 38.682,317.757 40.059,313.209 41.561,309.203 C 13.854,278.992 0.00,243.19 0.00,201.795 Z M 62.842,138.953 C 62.842,162.988 73.775,185.021 95.64,205.05 C 102.149,211.06 109.744,215.607 118.423,218.696 C 127.102,221.784 136.908,223.536 147.841,223.954 C 158.774,224.371 169.247,224.288 179.262,223.703 C 189.276,223.119 201.628,222.326 216.316,221.325 C 231.004,220.323 243.69,219.823 254.372,219.823 C 265.055,219.823 277.74,220.323 292.428,221.325 C 307.117,222.326 319.467,223.119 329.483,223.703 C 339.498,224.288 349.97,224.371 360.904,223.954 C 371.837,223.536 381.642,221.784 390.323,218.696 C 399.001,215.608 406.595,211.061 413.105,205.05 C 434.97,185.353 445.904,163.322 445.904,138.953 C 445.904,124.597 444.109,111.872 440.52,100.771 C 436.931,89.671 432.341,80.366 426.749,72.856 C 421.157,65.346 413.397,58.961 403.465,53.703 C 393.534,48.445 383.854,44.398 374.423,41.559 C 364.992,38.722 352.89,36.51 338.119,34.924 C 323.346,33.338 310.161,32.378 298.56,32.045 C 286.96,31.711 272.23,31.544 254.371,31.544 C 236.512,31.544 221.782,31.711 210.182,32.045 C 198.582,32.378 185.395,33.338 170.624,34.924 C 155.853,36.51 143.752,38.722 134.321,41.559 C 124.891,44.398 115.21,48.446 105.279,53.703 C 95.348,58.96 87.586,65.344 81.995,72.856 C 76.404,80.367 71.813,89.671 68.225,100.771 C 64.636,111.872 62.842,124.599 62.842,138.953 ZM 320.00,144.00A32.00,48.00 2700.00 1 0 384.00,144A32.00,48.00 2700.00 1 0 320.00,144zM 128.00,144.00A32.00,48.00 2700.00 1 0 192.00,144A32.00,48.00 2700.00 1 0 128.00,144z"  />
<glyph unicode="&#x59;" d="M 445.98,222.898c-9.043,0.00-17.674-1.76-25.532-4.928C 415.195,275.149, 365.303,320.00, 304.448,320.00
		c-14.893,0.00-29.341-2.815-42.159-7.582c-4.98-1.851-6.289-3.76-6.289-7.458l0.00-201.357 c0.00-3.883, 3.12-7.117, 7.062-7.498
		C 263.23,96.088, 444.83,96.00, 446.007,96.00C 482.459,96.00, 512.00,124.408, 512.00,159.447S 482.433,222.898, 445.98,222.898zM 200.00,96.00L 216.00,96.00L 224.00,208.11L 216.00,320.00L 200.00,320.00L 192.00,208.11 	zM 152.00,96.00L 136.00,96.00L 128.00,177.375L 136.00,256.00L 152.00,256.00L 160.00,176.00 	zM 72.00,96.00L 88.00,96.00L 96.00,160.00L 88.00,224.00L 72.00,224.00L 64.00,160.00 	zM 8.00,128.00L 24.00,128.00L 32.00,160.00L 24.00,192.00L 8.00,192.00L0.00,160.00 	z"  />
<glyph unicode="&#x5a;" d="M 400.00,272.00 C 364.71,272.00 336.00,243.29 336.00,208.00 C 336.00,172.71 364.71,144.00 400.00,144.00 C 435.29,144.00 464.00,172.71 464.00,208.00 C 464.00,243.29 435.29,272.00 400.00,272.00 Z M 400.00,320.00 L 400.00,320.00 C 461.855,320.00 512.00,269.856 512.00,208.00 C 512.00,146.145 461.855,96.00 400.00,96.00 C 338.145,96.00 288.00,146.145 288.00,208.00 C 288.00,269.856 338.145,320.00 400.00,320.00 ZM0.00,208.00A112.00,112.00 1260.00 1 0 224.00,208A112.00,112.00 1260.00 1 0 0.00,208z"  />
<glyph unicode="&#x5b;" d="M 395.749,207.954c-0.647,64.841, 52.879,95.938, 55.271,97.483c-30.076,44.01-76.925,50.039-93.621,50.736
		c-39.871,4.037-77.798-23.474-98.033-23.474c-20.184,0.00-51.409,22.877-84.476,22.276c-43.458-0.646-83.529-25.269-105.906-64.19
		c-45.152-78.349-11.563-194.42, 32.445-257.963c 21.504-31.102, 47.146-66.038, 80.813-64.79c 32.421,1.294, 44.681,20.979, 83.878,20.979
		c 39.197,0.00, 50.214-20.979, 84.525-20.335c 34.887,0.648, 56.991,31.699, 78.346,62.898c 24.695,36.084, 34.863,71.019, 35.462,72.813
		C 463.679,104.74, 396.423,130.505, 395.749,207.954zM 331.281,398.239C 349.15,419.918, 361.211,449.995, 357.921,480.00c-25.739-1.048-56.939-17.145-75.405-38.775
		c-16.571-19.188-31.074-49.813-27.187-79.218C 284.062,359.765, 313.393,376.609, 331.281,398.239z"  />
<glyph unicode="&#x5c;" d="M 283.828,111.542c-40.972-19.059-79.079-18.858-104.67-17.01c-30.526,2.205-55.079,10.562-65.871,17.866
		c-6.65,4.503-15.692,2.761-20.195-3.891c-4.502-6.651-2.76-15.693, 3.891-20.195c 17.349-11.743, 48.034-20.477, 80.081-22.79
		c 5.433-0.392, 11.399-0.639, 17.823-0.639c 27.891,0.00, 63.313,2.658, 101.21,20.285c 7.282,3.389, 10.439,12.037, 7.052,19.32
		C 299.761,111.771, 291.111,114.924, 283.828,111.542zM 445.474,133.092c 1.393,126.344, 14.381,365.103-227.485,345.806C-20.811,459.677, 42.507,207.414, 38.948,122.923
		C 35.794,78.23, 20.959,23.599,0.00-32.00l 64.55,0.00 c 6.633,23.561, 11.512,46.86, 13.616,69.075c 3.891-2.714, 8.054-5.337, 12.497-7.85
		c 7.229-4.259, 13.442-9.922, 20.02-15.917c 15.372-14.009, 32.795-29.887, 66.856-31.876c 2.286-0.131, 4.587-0.197, 6.838-0.197
		c 34.448,0.00, 58.007,15.077, 76.939,27.191c 9.07,5.806, 16.909,10.82, 24.282,13.226c 20.955,6.56, 39.266,17.148, 52.952,30.626
		c 2.138,2.104, 4.121,4.269, 5.981,6.474c 7.623-27.939, 18.059-59.379, 29.644-90.752L 512.00-32.00 
		C 478.913,19.112, 444.782,69.187, 445.474,133.092z M 62.055,201.824c0.00,0.008,0.00,0.015-0.001,0.023
		c-2.373,41.231, 17.355,75.916, 44.063,77.468c 26.706,1.553, 50.28-30.614, 52.652-71.846c0.00-0.007, 0.002-0.015, 0.002-0.022
		c 0.128-2.223, 0.184-4.423, 0.185-6.603c-8.462-2.128-16.096-5.218-22.936-8.815c-0.026,0.306-0.046,0.608-0.076,0.915
		c0.00,0.004,0.00,0.009,0.00,0.013c-2.285,23.405-14.786,41.08-27.926,39.479c-13.14-1.602-21.94-21.875-19.656-45.279
		c0.00-0.005, 0.002-0.009, 0.002-0.013c 0.996-10.204, 3.934-19.318, 8.021-26.222c-1.017-0.802-3.892-2.906-7.203-5.328
		c-2.485-1.817-5.51-4.029-9.157-6.715C 70.084,161.926, 63.272,180.669, 62.055,201.824z M 332.63,99.911
		c-0.95-21.793-29.454-42.296-55.791-50.522l-0.148-0.048c-10.95-3.551-20.714-9.80-31.052-16.415
		c-17.366-11.112-35.323-22.604-61.261-22.604c-1.702,0.00-3.447,0.052-5.163,0.148c-23.758,1.389-34.871,11.516-48.94,24.338
		c-7.421,6.763-15.095,13.757-24.988,19.562l-0.212,0.122c-21.353,12.052-34.606,27.041-35.454,40.097
		c-0.421,6.49, 2.469,12.109, 8.591,16.70c 13.318,9.986, 22.239,16.511, 28.142,20.829c 6.555,4.794, 8.534,6.24, 10.00,7.632
		c 1.048,0.993, 2.182,2.094, 3.402,3.281c 12.223,11.887, 32.68,31.781, 64.075,31.781c 19.202,0.00, 40.449-7.40, 63.085-21.951
		c 10.662-6.939, 19.941-10.143, 31.69-14.20c 8.078-2.789, 17.234-5.951, 29.496-11.202l 0.198-0.082
		C 319.74,122.675, 333.248,114.095, 332.63,99.911z M 326.323,151.097c-2.20,1.107-4.487,2.16-6.872,3.143
		c-11.053,4.728-19.916,7.937-27.267,10.499c 4.058,7.947, 6.58,17.86, 6.812,28.621c0.00,0.005,0.00,0.011,0.00,0.015
		c 0.563,26.187-12.644,47.448-29.498,47.488c-16.855,0.039-30.975-21.157-31.538-47.343c0.00-0.005,0.00-0.009,0.00-0.014
		c-0.019-0.857-0.021-1.708-0.01-2.555c-10.381,4.776-20.59,8.245-30.583,10.38c-0.046,0.984-0.102,1.966-0.122,2.96
		c0.00,0.008,0.00,0.018,0.00,0.025c-0.969,47.706, 28.301,87.195, 65.377,88.201c 37.075,1.007, 67.914-36.85, 68.886-84.555
		c0.00-0.009,0.00-0.019,0.00-0.026C 341.945,186.363, 336.178,166.503, 326.323,151.097z"  />
<glyph unicode="&#x20;" horiz-adv-x="256" />
<glyph class="hidden" unicode="&#xf000;" d="M0,480L 512 -32L0 -32 z" horiz-adv-x="0" />
</font>
</defs>
</svg>
